Поиск

2020 Tangents - Timeslips {Temporary Residence} [24-44,1]

2020 Tangents - Timeslips {Temporary Residence} [24-44,1]
Дата издания диска:
4 сентября 2020
Битрейт аудио:
lossless

Треклист:

1. Exaptation  06:49
2. Vessel  05:58
3. Old Organs  06:35
4. Survival  05:38
5. Debris  06:18
6. Bylong  08:00

Доп. инфо:

Формат записи/Источник записи: [TR24][OF]
Наличие водяных знаков: Нет
Год издания: 2020
Издатель (лейбл): Temporary Residence Ltd
Продолжительность: 00:39:20
Наличие сканов в содержимом раздачи: Только обложка
Источник (релизер): qobuz
Контейнер: FLAC (*.flac)
Тип рипа: tracks
Разрядность: 24/44,1
Формат: PCM
Количество каналов: 2.0

Лог проверки качества
foobar2000 1.3.16 / Dynamic Range Meter 1.1.1
log date: 2020-09-07 16:36:26

--------------------------------------------------------------------------------
Analyzed: Tangents / Timeslips
--------------------------------------------------------------------------------

DR         Peak         RMS     Duration Track
--------------------------------------------------------------------------------
DR8       -0.17 dB   -11.70 dB      6:49 01-Exaptation
DR9       -0.17 dB   -11.92 dB      5:59 02-Vessel
DR9       -0.17 dB   -10.39 dB      6:35 03-Old Organs
DR8       -0.16 dB   -10.28 dB      5:38 04-Survival
DR9       -0.17 dB   -10.86 dB      6:19 05-Debris
DR11      -0.17 dB   -14.49 dB      8:01 06-Bylong
--------------------------------------------------------------------------------

Number of tracks:  6
Official DR value: DR9

Samplerate:        44100 Hz
Channels:          2
Bits per sample:   24
Bitrate:           1382 kbps
Codec:             FLAC
================================================================================
Приватный:
Да (DHT отключён)
Размер:
424.23 Мб (444,837,497 байт) » файлов: 8
Участники:
2 раздают, 0 качают (2 участников всего)
Внешние участники:
5 раздают, 1 качают (6 участников всего) [ Обновить ]
No seeders - write personal message to M0p94ok. Нет сидеров - пишите в личку M0p94ok.
22:07
128
Нет комментариев. Ваш будет первым!