Поиск

2017 Stephan Crump, Ingrid Laubrock, Cory Smythe - Planktonic Finales {Intakt} [24-96]

2017 Stephan Crump, Ingrid Laubrock, Cory Smythe - Planktonic Finales {Intakt} [24-96]
Дата записи диска:
13 августа 2015
Место записи:
Oktaven Audio, Yonkers, NY, USA
Дата издания диска:
17 февраля 2017
Издатель (лейбл):
Номер по каталогу:
INTAKT 285
Носитель:
WEB
Формат:
PCM
Тип рипа:
tracks+.cue
Контейнер:
APE (*.ape)
Количество каналов:
2.0
Разрядность/ЧД:
24/96
Битрейт аудио:
lossless
Время звучания:
00:53:17
Наличие сканов:
web
Страна-производитель диска (релиза):
Switzerland
Релизёр (источник):
M0p94ok
Лог проверки качества
foobar2000 1.6.2 / Dynamic Range Meter 1.1.1
log date: 2020-12-23 17:04:27

--------------------------------------------------------------------------------
Analyzed: Ingrid Laubrock / Planktonic Finales
--------------------------------------------------------------------------------

DR         Peak         RMS     Duration Track
--------------------------------------------------------------------------------
DR12      -0.06 dB   -17.08 dB      5:49 01-With Eyes Peeled
DR11      -0.06 dB   -15.01 dB      7:04 02-Tones for Climbing Plants
DR9       -0.06 dB   -12.67 dB     11:47 03-Sinew Modulations
DR8       -0.06 dB   -13.38 dB      3:56 04-Through the Forest
DR20      -6.24 dB   -34.57 dB      2:42 05-A House Alone
DR9       -0.56 dB   -14.71 dB      6:12 06-Three-Panel
DR14      -0.06 dB   -20.78 dB      3:40 07-Submerged (Personal) Effects
DR10      -0.06 dB   -13.44 dB      2:27 08-Pulse Memory
DR7       -0.06 dB    -8.24 dB      1:52 09-Bite Bright Sunlight
DR14      -0.82 dB   -20.11 dB      4:08 10-As if in Its Throat
DR10      -0.06 dB   -14.65 dB      3:46 11-Inscribed in Trees
--------------------------------------------------------------------------------

Number of tracks:  11
Official DR value: DR11

Samplerate:        96000 Hz
Channels:          2
Bits per sample:   24
Bitrate:           2916 kbps
Codec:             FLAC
================================================================================
No seeders - write personal message to M0p94ok. Any questions - support@pro-jazz.com.
Нет сидеров - пишите в личку M0p94ok. Есть вопросы - support@pro-jazz.com
18:33
169
Нет комментариев. Ваш будет первым!