Вы используете незарегистрированную версию компонента "Вкладки"!

Поиск

2020 Special EFX - Special EFX Allstars ( feat. Chieli Minucci) {Trippin 'n Rhythm} [24-48]

2020 Special EFX - Special EFX Allstars ( feat. Chieli Minucci) {Trippin 'n Rhythm} [24-48]
Стили:
Дата издания диска:
14 февраля 2020
Доп. инфо:

• Формат записи | Источник записи: [TR24][OF]
• Наличие водяных знаков: Нет
• Год издания релиза: 2020
• Лейбл: Trippin 'n Rhythm
• Продолжительность: 00:57:31
• Источник: internet
• WEB релиз: ссылка
• Контейнер: FLAC (*.flac)
• Тип рипа: tracks
• Разрядность: 24/48
• Формат: PCM
• Количество каналов: 2.0
• Наличие сканов: front

Лог проверки качества
foobar2000 1.3.9 / Замер динамического диапазона (DR) 1.1.1
Дата отчёта:  2020-02-12 11:11:17

--------------------------------------------------------------------------------
Анализ:   Special EFX / Special EFX Allstars
--------------------------------------------------------------------------------

DR         Пики         RMS           Продолжительность трека
--------------------------------------------------------------------------------
DR9       -1.21 дБ   -12.11 дБ      5:10 01-Mr. Marzipan
DR9       -1.21 дБ   -11.77 дБ      4:18 02-Sunset Passion Juice
DR10      -1.17 дБ   -12.45 дБ      5:04 03-Hanky Panky Boys
DR9       -1.21 дБ   -11.57 дБ      5:31 04-Little Wing
DR8       -1.21 дБ   -11.07 дБ      3:35 05-Empathy
DR10      -1.31 дБ   -12.22 дБ      4:32 06-Two Dancing
DR9       -1.21 дБ   -13.34 дБ      1:14 07-Arise
DR10      -1.21 дБ   -11.90 дБ      4:44 08-Wake Up
DR10      -0.79 дБ   -13.98 дБ      2:05 09-Sweet Memories Of You
DR10      -1.16 дБ   -12.47 дБ      6:00 10-Kampala
DR12      -0.77 дБ   -16.38 дБ      1:11 11-Great Escape, Pt. 1
DR9       -0.61 дБ   -12.37 дБ      5:05 12-Great Escape, Pt. 2
DR11      -0.60 дБ   -13.10 дБ      5:54 13-Flows Like Water
DR9       -0.70 дБ   -12.35 дБ      3:08 14-One Stick and a Stone
--------------------------------------------------------------------------------

Количество треков: 14
Реальные значения DR: DR10

Частота:   48000 Гц
Каналов:   2
Разрядность:   24
Битрейт:   1596 кбит/с
Кодек:   FLAC
================================================================================
Any questions - support@pro-jazz.com. Есть вопросы - support@pro-jazz.com
09:43
259
Нет комментариев. Ваш будет первым!