Вы используете незарегистрированную версию компонента "Вкладки"!

Поиск

2020 Moses Boyd - Dark Matter {Exodus} [24-44,1]

2020 Moses Boyd - Dark Matter {Exodus} [24-44,1]
Стили:
Доп. инфо:

• Формат записи | Источник записи: [TR24][OF]
• Наличие водяных знаков: Нет
• Год издания релиза: 2020
• Лейбл: Exodus Records
• Продолжительность: 00:50:18
• Источник: internet
• WEB релиз: ссылка
• Контейнер: FLAC (*.flac)
• Тип рипа: tracks
• Разрядность: 24/44,1
• Формат: PCM
• Количество каналов: 2.0
• Наличие сканов: front

Лог проверки качества
foobar2000 1.3.9 / Замер динамического диапазона (DR) 1.1.1
Дата отчёта:  2020-02-12 11:15:28

--------------------------------------------------------------------------------
Анализ:   Moses Boyd / Dark Matter
--------------------------------------------------------------------------------

DR         Пики         RMS           Продолжительность трека
--------------------------------------------------------------------------------
DR7       -0.26 дБ    -9.88 дБ      4:55 01-Stranger Than Fiction
DR7       -0.26 дБ   -10.20 дБ      1:00 02-Hard Food (Interlude)
DR8       -0.26 дБ    -8.71 дБ      6:00 03-BTB
DR8       -0.26 дБ    -9.72 дБ      5:31 04-Y.O.Y.O
DR7       -0.26 дБ    -8.64 дБ      4:20 05-Shades of You
DR8       -0.26 дБ   -10.08 дБ      4:47 06-Dancing in the Dark
DR7       -0.26 дБ    -8.47 дБ      4:46 07-Only You
DR8       -0.26 дБ    -9.00 дБ      5:43 08-2 Far Gone
DR5       -0.26 дБ    -6.66 дБ      4:36 09-Nommos Descent
DR7       -0.26 дБ   -10.32 дБ      8:40 10-What Now
--------------------------------------------------------------------------------

Количество треков: 10
Реальные значения DR: DR7

Частота:   44100 Гц
Каналов:   2
Разрядность:   24
Битрейт:   1539 кбит/с
Кодек:   FLAC
================================================================================
Any questions - support@pro-jazz.com. Есть вопросы - support@pro-jazz.com
11:04
265
Нет комментариев. Ваш будет первым!