Вы используете незарегистрированную версию компонента "Вкладки"!

Поиск

2020 Simon Bolzinger - Ritmos Queridos {Quart de Lune} [24-48]

2020 Simon Bolzinger - Ritmos Queridos {Quart de Lune} [24-48]
Битрейт аудио:
lossless
Доп. инфо:

• Формат записи | Источник записи: [TR24][OF]
• Наличие водяных знаков: Нет
• Год издания релиза: 2020
• Лейбл: Quart de Lune
• Продолжительность: 00:56:52
• Источник: internet
• WEB релиз: ссылка
• Контейнер: FLAC (*.flac)
• Тип рипа: tracks
• Разрядность: 24/48
• Формат: WAV (flac.ape.wv)
• Количество каналов: 2.0
• Наличие сканов: front

Лог проверки качества
foobar2000 1.4.2 / Dynamic Range Meter 1.1.1
log date: 2020-02-23 16:07:16

--------------------------------------------------------------------------------
Analyzed: Simon Bolzinger / Ritmos Queridos
--------------------------------------------------------------------------------

DR         Peak         RMS     Duration Track
--------------------------------------------------------------------------------
DR8       -0.56 dB   -11.66 dB      5:00 01-Quitapesares
DR11      -0.56 dB   -13.67 dB      4:26 02-Mambo de Machaguay
DR9       -0.56 dB   -13.37 dB      5:12 03-Montuno en Olinda
DR14      -0.56 dB   -19.39 dB      6:10 04-La Pomeña
DR15      -0.56 dB   -20.56 dB      4:52 05-Como Llora un Estrella
DR10      -0.56 dB   -13.98 dB      7:51 06-Beau Soir & Dindi
DR10      -0.56 dB   -13.82 dB      7:08 07-Danzón para Oxúm
DR10      -0.56 dB   -11.85 dB      5:38 08-Baile de los Morenos
DR14      -0.56 dB   -19.34 dB     10:36 09-El Ciego
--------------------------------------------------------------------------------

Number of tracks:  9
Official DR value: DR11

Samplerate:        48000 Hz
Channels:          2
Bits per sample:   24
Bitrate:           1409 kbps
Codec:             FLAC
================================================================================
Any questions - support@pro-jazz.com. Есть вопросы - support@pro-jazz.com
07:48
278
Нет комментариев. Ваш будет первым!