Вы используете незарегистрированную версию компонента "Вкладки"!

Поиск

2020 Nelson Faria Quintet - Plays Daniel Figueiredo {MJC} [24-44,1]

2020 Nelson Faria Quintet - Plays Daniel Figueiredo {MJC} [24-44,1]
Битрейт аудио:
lossless
Доп. инфо:

• Формат записи | Источник записи: [TR24][OF]
• Наличие водяных знаков: Нет
• Год издания релиза: 2020
• Лейбл: MJC
• Продолжительность: 00:37:16
• Источник: internet
• WEB релиз: ссылка
• Контейнер: FLAC (*.flac)
• Тип рипа: tracks
• Разрядность: 24/44,1
• Формат: WAV (flac.ape.wv)
• Количество каналов: 2.0
• Наличие сканов: front

Лог проверки качества
foobar2000 1.4.2 / Dynamic Range Meter 1.1.1
log date: 2020-02-23 16:05:12

--------------------------------------------------------------------------------
Analyzed: Nelson Faria Quintet / Plays Daniel Figueiredo
--------------------------------------------------------------------------------

DR         Peak         RMS     Duration Track
--------------------------------------------------------------------------------
DR10      -0.31 dB   -11.11 dB      4:46 01-Desatino
DR10      -0.31 dB   -11.56 dB      3:07 02-Destemido
DR11      -0.32 dB   -13.14 dB      5:22 03-Dinastia
DR9       -0.31 dB   -10.90 dB      3:19 04-Distinto
DR9       -0.31 dB   -10.83 dB      3:12 05-Durante
DR9       -0.31 dB   -11.10 dB      2:49 06-Naftalina
DR11      -0.61 dB   -13.12 dB      4:40 07-Naquele
DR10      -0.31 dB   -11.32 dB      3:57 08-Neste
DR10      -0.32 dB   -11.45 dB      3:42 09-Nevasca
DR7       -0.31 dB    -9.35 dB      2:22 10-Notado
--------------------------------------------------------------------------------

Number of tracks:  10
Official DR value: DR10

Samplerate:        44100 Hz
Channels:          2
Bits per sample:   24
Bitrate:           1576 kbps
Codec:             FLAC
================================================================================
Any questions - support@pro-jazz.com. Есть вопросы - support@pro-jazz.com
00:05
276
Нет комментариев. Ваш будет первым!