Вы используете незарегистрированную версию компонента "Вкладки"!

Поиск

2020 Silje Nergaard - Japanese Blue {Okeh} [24-96]

2020 Silje Nergaard - Japanese Blue {Okeh} [24-96]
Стили:
Издатель (лейбл):
Битрейт аудио:
lossless
Доп. инфо:

• Формат записи | Источник записи: [TR24][OF]
• Наличие водяных знаков: Нет
• Год издания релиза: 2020
• Лейбл: Okeh
• Продолжительность: 00:47:20
• Источник: internet
• WEB релиз: ссылка
• Контейнер: FLAC (*.flac)
• Тип рипа: tracks
• Разрядность: 24/96
• Формат: PCM
• Количество каналов: 2.0
• Наличие сканов: front

Лог проверки качества
foobar2000 1.4.2 / Dynamic Range Meter 1.1.1
log date: 2020-02-27 21:51:18

--------------------------------------------------------------------------------
Analyzed: Silje Nergaard / Japanese Blue
--------------------------------------------------------------------------------

DR         Peak         RMS     Duration Track
--------------------------------------------------------------------------------
DR7       -0.98 dB   -11.78 dB      5:53 01-Be Still My Heart (Acoustic Version)
DR8       -0.96 dB   -13.23 dB      5:56 02-Based on a Thousand True Stories (Acoustic Version)
DR8       -1.98 dB   -13.03 dB      4:03 03-The Waltz (Acoustic Version)
DR7       -0.98 dB   -11.39 dB      5:21 04-I Don't Wanna See You Cry (Acoustic Version)
DR8       -1.98 dB   -13.07 dB      5:16 05-Mercy Street (Acoustic Version)
DR12      -0.98 dB   -16.62 dB      5:09 06-Lullaby to Erle (Acoustic Version)
DR9       -1.48 dB   -13.47 dB      4:06 07-Love of My Life (Acoustic Version)
DR8       -0.98 dB   -13.15 dB      6:24 08-Japanese Blue (Acoustic Version)
DR8       -0.86 dB   -13.17 dB      5:12 09-En Og En (Acoustic Version)
--------------------------------------------------------------------------------

Number of tracks:  9
Official DR value: DR8

Samplerate:        96000 Hz
Channels:          2
Bits per sample:   24
Bitrate:           2865 kbps
Codec:             FLAC
================================================================================
Any questions - support@pro-jazz.com. Есть вопросы - support@pro-jazz.com
08:47
313
Нет комментариев. Ваш будет первым!