Вы используете незарегистрированную версию компонента "Вкладки"!

Поиск

2019 Christian Wallumrød Ensemble - Many {Hubro} [24-44,1]

2019 Christian Wallumrød Ensemble - Many {Hubro} [24-44,1]
Стили:
Битрейт аудио:
lossless
Доп. инфо:

• Формат записи | Источник записи: [TR24][OF]
• Наличие водяных знаков: Нет
• Страна: Norway
• Год издания релиза: 2019
• Лейбл: Hubro
• Продолжительность: 00:40:25
• Источник: internet
• WEB релиз: ссылка
• Контейнер: FLAC (*.flac)
• Тип рипа: tracks
• Разрядность: 24/44,1
• Формат: PCM
• Количество каналов: 2.0
• Наличие сканов: front

Лог проверки качества
foobar2000 1.4.2 / Dynamic Range Meter 1.1.1
log date: 2020-02-27 22:21:52

--------------------------------------------------------------------------------
Analyzed: Christian WallumrГёd Ensemble / Many
--------------------------------------------------------------------------------

DR         Peak         RMS     Duration Track
--------------------------------------------------------------------------------
DR11      -4.31 dB   -19.33 dB      4:05 01/7-Oh gorge
DR14      -0.31 dB   -20.31 dB      8:15 02/7-50-80
DR13      -0.31 dB   -15.15 dB      3:07 03/7-Danszaal
DR12      -0.31 dB   -19.58 dB      5:09 04/7-Abysm
DR13      -0.31 dB   -15.93 dB      1:44 05/7-Staccotta
DR13      -0.30 dB   -17.15 dB     14:23 06/7-El Johnton
DR13      -0.31 dB   -15.99 dB      3:42 07/7-Dialect
--------------------------------------------------------------------------------

Number of tracks:  7
Official DR value: DR13

Samplerate:        44100 Hz
Channels:          2
Bits per sample:   24
Bitrate:           1332 kbps
Codec:             FLAC
================================================================================
Any questions - support@pro-jazz.com. Есть вопросы - support@pro-jazz.com
12:47
268
Нет комментариев. Ваш будет первым!