Вы используете незарегистрированную версию компонента "Вкладки"!

Поиск

2020 Seth MacFarlane - Great Songs From Stage And Screen {Verve} [24-96]

2020 Seth MacFarlane - Great Songs From Stage And Screen {Verve} [24-96]
Стили:
Дата издания диска:
28 августа 2020
Издатель (лейбл):
Носитель:
WEB
Формат:
PCM
Тип рипа:
tracks+.cue
Контейнер:
FLAC (*.flac)
Количество каналов:
2.0
Разрядность/ЧД:
24/96
Битрейт аудио:
lossless
Время звучания:
00:48:36
Наличие сканов:
web
Страна-производитель диска (релиза):
USA
Релизёр (источник):
M0p94ok
Лог проверки качества
foobar2000 1.5.5 / Dynamic Range Meter 1.1.1
log date: 2020-09-03 09:23:17

--------------------------------------------------------------------------------
Analyzed: Seth MacFarlane / Great Songs From Stage And Screen
--------------------------------------------------------------------------------

DR         Peak         RMS     Duration Track
--------------------------------------------------------------------------------
DR9       -0.10 dB   -12.74 dB      2:43 01-Once Upon A Dream
DR12      -0.38 dB   -16.03 dB      4:48 02-I Loved You Once In Silence
DR10      -0.10 dB   -14.27 dB      2:53 03-Let's Not Be Sensible
DR8       -0.10 dB   -10.73 dB      2:56 04-Ten Minutes Ago
DR9       -0.10 dB   -11.05 dB      3:12 05-Ain’t Got A Dime To My Name (Ho Ho Ho Ho Hum)
DR10      -0.10 dB   -14.29 dB      4:53 06-Love Is Only Love
DR7       -0.10 dB   -11.27 dB      3:46 07-What Did I Have That I Don't Have?
DR10      -0.10 dB   -13.95 dB      3:37 08-Come Out, Come Out, Wherever You Are
DR10      -0.22 dB   -14.85 dB      5:23 09-Two For The Road
DR8       -0.10 dB   -11.92 dB      3:11 10-All Er Nothin'
DR10      -0.10 dB   -14.86 dB      4:15 11-You'd Be So Nice To Come Home To
DR10      -0.10 dB   -13.50 dB      3:42 12-Mind If I Make Love To You
DR12      -0.10 dB   -15.86 dB      3:17 13-Time For Parting
--------------------------------------------------------------------------------

Number of tracks:  13
Official DR value: DR10

Samplerate:        96000 Hz
Channels:          2
Bits per sample:   24
Bitrate:           3077 kbps
Codec:             FLAC
================================================================================
Any questions - support@pro-jazz.com. Есть вопросы - support@pro-jazz.com
15:55
229
Нет комментариев. Ваш будет первым!