Поиск

2020 Raphaël Imbert & Johan Farjot - Les 1001 Nuits du Jazz - Live au Bal Blomet {MDC, Compagnie Nine Spirit} [24-48]

2020 Raphaël Imbert & Johan Farjot - Les 1001 Nuits du Jazz - Live au Bal Blomet {MDC, Compagnie Nine Spirit} [24-48]
Стили:
Место записи:
Bal Blomet, Paris
Дата издания диска:
6 марта 2020
Носитель:
WEB
Формат:
PCM
Тип рипа:
tracks
Контейнер:
FLAC (*.flac)
Количество каналов:
2.0
Битрейт аудио:
lossless
Наличие сканов:
только обложка

1        Blues For Angels  3:14
Bass – Denis Pitalua
Drums – Elvire Jouve
Viola – Hélène Hadjiyiassemis
Violin [1st] – Elsa Moati
Violin [2nd] – Irène Martin
Violoncello – Stéphanie Huang
2        Gee, Baby, Ain't I Good To You  3:13
Bass – Sylvain Minh Tuang Fournet-Fayas
Drums – Julie Saury
Guitar – Aurélien Hall
Violin – Arnaud Thorette
Violoncello – Barbara Le Liepvre
Vocals – Hugh Coltman
3        Yekermo Sew  9:11
Double Bass – Felipe Cabrera
Drums – Anne Paceo
Saxophone – Jean-Jacques Elangué
4        All To Myself Alone  4:21
Bass – Sylvain Minh Tuang Fournet-Fayas
Drums – Julie Saury
Guitar – Aurélien Hall
Violin – Arnaud Thorette
Violoncello – Barbara Le Liepvre
Vocals – Hugh Coltman
5        Redemption Song  4:52
Double Bass – Felipe Cabrera
Drums – Anne Paceo
Saxophone – Jean-Jacques Elangué
Vocals – Aurore Imbert
6        Improvisation - Hommage À John Coltrane  4:03
Double Bass – Damien Varaillon
Drums – Daniel Humair
7        Gravenstein  2:55
Double Bass – Damien Varaillon
Drums – Daniel Humair
8        The Mooche  6:08
Bass – Grégoire Oboldouieff
Drums – Jerôme Renaud
Saxophone – Pascal Mabit
Trombone – Cyril Galamini
Trumpet – Louis Alleaume, Quentin Lourties
9        Sweet Home Chicago  5:21
Drums – Jack Bowman (4)
Guitar – Aurélien Naffrichoux
Vocals – Amandine Bourgeois
10        Memphis March  4:38
Bass – Denis Pitalua
Drums – Elvire Jouve
Viola – Hélène Hadjiyiassemis
Violin [1st] – Elsa Moati
Violin [2nd] – Irène Martin
Violoncello – Stéphanie Huang
11        De Quoi Le Jazz Est-il Le Nom ?  7:58
Text By – Raphaël Imbert

Состав:
  •     Executive Producer – Maggie Doherty
  •     Mastered By – Raphaël Jonin
  •     Piano, Organ – Johan Farjot
  •     Recorded By, Mixed By – Roman Zaborski
  •     Saxophone – Raphaël Imbert

Thèmes des concerts enrgistrés :
Le Jazz Engagé des 60's — pistes 1 & 10 enregistrées le 5 avril 2018
Les Crooners — pistes 2 & 4 enregistrées le 4 avril 2019
L'Afrique et le Jazz — pistes 3 & 5 enregistrées le 16 novembre 2017
Daniel Humair et l'Art de la Batterie — pistes 6 & 7 enregistrées le 18 janvier 2018
Ellington et la Fraternité du Souffle — piste 8 enregistrée le 6 juin 2019
Le Blues, aux Racines du Rock — piste 9 enregistrée le 17 mai 2018

Лог проверки качества
foobar2000 1.6.10 / Dynamic Range Meter 1.1.1
log date: 2023-01-19 22:40:22

--------------------------------------------------------------------------------
Analyzed: Raphaël Imbert / Les 1001 Nuits du Jazz - Live au Bal Blomet
--------------------------------------------------------------------------------

DR         Peak         RMS     Duration Track
--------------------------------------------------------------------------------
DR10      -0.01 dB   -14.35 dB      3:13 01-Blues For Angels
DR9       -0.01 dB   -11.45 dB      3:14 02-Gee, Baby, Ain't I Good To You
DR10      -0.01 dB   -13.10 dB      9:11 03-Yekermo Sew
DR10      -0.02 dB   -13.65 dB      4:21 04-All To Myself Alone
DR10      -0.01 dB   -15.02 dB      4:53 05-Redemption Song
DR7       -0.01 dB   -10.01 dB      4:04 06-Improvisation - Hommage à John Coltrane
DR10      -0.01 dB   -13.10 dB      2:58 07-Gravenstein
DR11      -0.01 dB   -14.59 dB      6:08 08-The Mooche
DR10      -0.01 dB   -12.07 dB      5:18 09-Sweet Home Chicago
DR11      -0.02 dB   -15.30 dB      4:37 10-Memphis March
DR11      -0.02 dB   -13.94 dB      7:53 11-De quoi le jazz est-il le nom ?
--------------------------------------------------------------------------------

Number of tracks:  11
Official DR value: DR10

Samplerate:        48000 Hz
Channels:          2
Bits per sample:   24
Bitrate:           1351 kbps
Codec:             FLAC
================================================================================
Приватный:
Нет (DHT включён)
Размер:
639.52 Мб (670,580,817 байт) » файлов: 13
Участники:
0 раздают, 0 качают (0 участников всего)
Внешние участники:
--- [ Обновить ]
23:52
291
Нет комментариев. Ваш будет первым!