Поиск

2020 Noah Haidu - Doctone {Sunnyside} [24-96]

2020 Noah Haidu - Doctone {Sunnyside} [24-96]
Стили:
Место записи:
Sear Sound Studio, New York City, NY, USA
Дата издания диска:
2 октября 2020
Издатель (лейбл):
Носитель:
WEB
Формат:
PCM
Тип рипа:
tracks
Контейнер:
FLAC (*.flac)
Количество каналов:
2.0
Разрядность/ЧД:
24/96
Битрейт аудио:
lossless
Время звучания:
01:12:55
Наличие сканов:
только обложка
Страна-производитель диска (релиза):
USA
Релизёр (источник):
Stephenten

01. Doctor of Tone  01:25
02. Midnight Silence  08:35
03. Blasphemy  06:47
04. Steepian Faith  07:16
05. Dienda I  04:20
06. Dienda II  06:27
07. Mr. J.C.  06:49
08. The Tonality of Atonement  08:29
09. Chambers of Tain  07:29
10. Fuchsia  08:01
11. Chance  07:17

Состав:
  • Chris Allan    Engineer
  • Todd Coolman    Bass
  • Noah Haidu    Composer, Keyboards, Liner Notes, Piano, Producer
  • Billy Hart    Drums
  • Jon Irabagon    Sax (Soprano), Sax (Tenor)
  • Katsuhiko Naito    Mastering, Mixing
  • Daniel Sadownick    Percussion
  • Gary Thomas    Sax (Tenor)
  • Steve Wilson    Sax (Alto), Sax (Soprano)
  • François Zalacain    Executive Producer
Лог проверки качества
foobar2000 1.4.8 / Dynamic Range Meter 1.1.1
log date: 2021-05-22 12:04:08

--------------------------------------------------------------------------------
Analyzed: Noah Haidu / Doctone
--------------------------------------------------------------------------------

DR         Peak         RMS     Duration Track
--------------------------------------------------------------------------------
DR13      -0.50 dB   -17.80 dB      1:26 01-Doctor of Tone
DR8       -0.50 dB   -12.02 dB      8:35 02-Midnight Silence
DR9       -0.50 dB   -11.40 dB      6:47 03-Blasphemy
DR8       -0.50 dB   -10.29 dB      7:17 04-Steepian Faith
DR12      -0.50 dB   -16.49 dB      4:21 05-Dienda I
DR10      -0.50 dB   -12.67 dB      6:27 06-Dienda II
DR8       -0.50 dB   -11.01 dB      6:49 07-Mr. J.C.
DR11      -0.50 dB   -13.85 dB      8:30 08-The Tonality of Atonement
DR8       -0.50 dB   -10.61 dB      7:30 09-Chambers of Tain
DR8       -0.50 dB   -10.94 dB      8:01 10-Fuchsia
DR11      -0.50 dB   -14.44 dB      7:17 11-Chance
--------------------------------------------------------------------------------

Number of tracks:  11
Official DR value: DR10
Samplerate:        96000 Hz
Channels:          2
Bits per sample:   24
Bitrate:           2785 kbps
Codec:             FLAC
================================================================================
Приватный:
Нет (DHT включён)
Размер:
1.47 Гб (1,580,691,606 байт) » файлов: 13
Участники:
0 раздают, 0 качают (0 участников всего)
Внешние участники:
--- [ Обновить ]
14:58
512
Нет комментариев. Ваш будет первым!