Поиск

1962 Tubby Hayes Quintet - Late Spot At Scott's (2019) {Decca, UMO} [24-88.2]

1962 Tubby Hayes Quintet - Late Spot At Scott's (2019) {Decca, UMO} [24-88.2]
Стили:
Дата записи диска:
17 мая - 18 мая 1962
Место записи:
The Ronnie Scott Club, London, UK
Дата издания диска:
1 сентября 1963
Издатель (лейбл):
Носитель:
WEB
Формат:
PCM
Тип рипа:
tracks
Контейнер:
FLAC (*.flac)
Количество каналов:
2.0
Разрядность/ЧД:
24/88,2
Битрейт аудио:
lossless
Время звучания:
00:41:36
Наличие сканов:
только обложка
Страна-производитель диска (релиза):
USA
Релизёр (источник):
latimer

Треклист:

01 - Half A Sawbuck 08:23
02 - Angel Eyes 04:55
03 - The Sausage Scraper / Quintet Theme 09:12
04 - My Man's Gone Now 09:08
05 - Yeah! / Quintet Theme 09:58

Состав:
  • Double Bass – Freddy Logan
  • Drums – Allan Ganley
  • Piano – Gordon Beck
  • Tenor Saxophone, Vibraphone – Tubby Hayes
  • Trumpet – Jimmy Deuchar
Лог проверки качества
foobar2000 1.4.3 / Dynamic Range Meter 1.1.1
log date: 2021-05-16 14:22:35

--------------------------------------------------------------------------------
Analyzed: Tubby Hayes Quintet / Late Spot At Scott's
--------------------------------------------------------------------------------

DR         Peak         RMS     Duration Track
--------------------------------------------------------------------------------
DR12      -0.47 dB   -14.76 dB      8:24 01-Half A Sawbuck (Live At Ronnie Scott's Club, London, UK / 1962)
DR13      -1.76 dB   -17.60 dB      4:56 02-Angel Eyes (Live At Ronnie Scott's Club, London, UK / 1962)
DR11      -0.48 dB   -14.44 dB      9:13 03-The Sausage Scraper / Quintet Theme (Live At Ronnie Scott's Club, London, UK / 1962)
DR13      -0.48 dB   -16.11 dB      9:08 04-My Man's Gone Now (Live At Ronnie Scott's Club, London, UK / 1962)
DR12      -0.63 dB   -15.00 dB      9:59 05-Yeah! / Quintet Theme (Live At Ronnie Scott's Club, London, UK / 1962)
--------------------------------------------------------------------------------

Number of tracks:  5
Official DR value: DR12

Samplerate:        88200 Hz
Channels:          2
Bits per sample:   24
Bitrate:           2859 kbps
Codec:             FLAC
================================================================================
12:41
518
Нет комментариев. Ваш будет первым!