Поиск

2020 Naama Gheber - Dearly Beloved {Cellar Live} [24-88,2]

2020 Naama Gheber - Dearly Beloved {Cellar Live} [24-88,2]
Стили:
Битрейт аудио:
lossless
Треклист:

01. Dearly Beloved (3:34)
02. So in Love (5:00)
03. S Wonderful (2:37)
04. Since I Fell for You (4:19)
05. I Can't Give You Anything but Love (5:01)
06. Get out of Town (4:02)
07. This Time the Dream's on Me (4:56)
08. You Stepped out of a Dream (3:56)
09. What's New (5:02)
10. Just Squeeze Me (4:18)
11. Sometimes I'm Happy (3:49)
12. Good Night My Love (4:08)
13. Exactly Like You (3:23)
14. Good Night My Love (Layla Tov) (4:08)

Состав:
  • Naama Gheber, vocals
  • Steve Nelson, vibraphone
  • Ray Gallon, piano
  • David Wong, bass, double bass
  • Aaron Kimmel, drums
Доп. инфо:

Формат записи/Источник записи: [TR24][OF]
Наличие водяных знаков: Нет
Год издания: 2020
Издатель (лейбл): Cellar Live
Продолжительность: 00:58:08
Наличие сканов в содержимом раздачи: Только обложка альбома
Контейнер: FLAC (*.flac)
Тип рипа: tracks
Разрядность: 24/88.2
Формат: PCM
Количество каналов: 2.0
Источник (релизер): highresaudio.com

Лог проверки качества
foobar2000 1.4.8 / Dynamic Range Meter 1.1.1
log date: 2020-04-10 08:21:00

--------------------------------------------------------------------------------
Analyzed: Naama Gheber / Dearly Beloved
--------------------------------------------------------------------------------

DR         Peak         RMS     Duration Track
--------------------------------------------------------------------------------
DR8       -1.00 dB   -11.51 dB      3:34 01-Dearly Beloved
DR10      -1.00 dB   -13.09 dB      5:00 02-So in Love
DR9       -1.00 dB   -11.76 dB      2:37 03-S Wonderful
DR9       -1.00 dB   -12.97 dB      4:19 04-Since I Fell for You
DR8       -1.00 dB   -10.96 dB      5:01 05-I Can't Give You Anything but Love
DR10      -1.00 dB   -14.20 dB      4:02 06-Get out of Town
DR9       -1.00 dB   -12.09 dB      4:56 07-This Time the Dream's on Me
DR7       -1.00 dB   -10.05 dB      3:56 08-You Stepped out of a Dream
DR9       -1.00 dB   -12.75 dB      5:02 09-What's New
DR9       -1.00 dB   -12.13 dB      4:18 10-Just Squeeze Me
DR9       -1.00 dB   -11.56 dB      3:49 11-Sometimes I'm Happy
DR7       -1.00 dB   -12.42 dB      4:08 12-Good Night My Love
DR8       -1.00 dB   -10.87 dB      3:23 13-Exactly Like You
DR7       -1.00 dB   -12.32 dB      4:08 14-Good Night My Love (Layla Tov)
--------------------------------------------------------------------------------

Number of tracks:  14
Official DR value: DR9
Samplerate:        88200 Hz
Channels:          2
Bits per sample:   24
Bitrate:           2428 kbps
Codec:             FLAC
================================================================================
Download available for power users only.
14:29
425
Нет комментариев. Ваш будет первым!