Вы используете незарегистрированную версию компонента "Вкладки"!

Поиск

2020 Eli Keszler & Oren Ambarchi - Alps {Oren Ambarchi Archive} [24-48]

2020 Eli Keszler & Oren Ambarchi - Alps {Oren Ambarchi Archive} [24-48]
Битрейт аудио:
lossless
Доп. инфо:

Формат записи/Источник записи: [TR24][OF]
Наличие водяных знаков: Нет
Год издания/переиздания диска: 2020
Издатель (лейбл): Oren Ambarchi Archive
Продолжительность: 00:46:48
Наличие сканов в содержимом раздачи: Буклет PDF

Контейнер: FLAC (*.flac)
Тип рипа: tracks
Разрядность: 24/48
Формат: PCM
Количество каналов: 2.0

Источник (релизер): https://orenambarchi.bandcamp.com/album/alps

Лог проверки качества
foobar2000 1.4.5 / Замер динамического диапазона (DR) 1.1.1
Дата отчёта:  2020-04-09 13:33:53

--------------------------------------------------------------------------------
Анализ:   Oren Ambarchi & Eli Keszler / Alps
--------------------------------------------------------------------------------

DR         Пики         RMS           Продолжительность трека
--------------------------------------------------------------------------------
DR9       -0.03 дБ   -12.54 дБ     20:22 1-Alps I
DR10      -0.16 дБ   -14.00 дБ     15:21 2-Alps II
DR15       0.00 дБ   -18.91 дБ     11:05 3-Alps bonus
--------------------------------------------------------------------------------

Количество треков: 3
Реальные значения DR: DR11

Частота:   48000 Гц
Каналов:   2
Разрядность:   24
Битрейт:   1655 кбит/с
Кодек:   FLAC
================================================================================
Any questions - support@pro-jazz.com. Есть вопросы - support@pro-jazz.com
14:55
282
Нет комментариев. Ваш будет первым!