Вы используете незарегистрированную версию компонента "Вкладки"!

Поиск

2020 Markus Stockhausen – Wild Life {O'Keh} [24-44,1]

2020 Markus Stockhausen – Wild Life {O'Keh} [24-44,1]
Издатель (лейбл):
Битрейт аудио:
lossless
Доп. инфо:

Формат записи/Источник записи: [TR24][OF]
Наличие водяных знаков: Нет
Год издания: 2020
Продолжительность: 02:54:07
Наличие сканов в содержимом раздачи: Только обложка
Источник: qobuz
Контейнер: FLAC (*.flac)
Тип рипа: tracks
Разрядность: 24/44,1
Формат: PCM
Количество каналов: 2.0

Лог проверки качества
foobar2000 1.3.16 / Dynamic Range Meter 1.1.1
log date: 2020-06-12 09:14:59

––––––––––––––––––––––––––––––––––––––––
Analyzed: Markus Stockhausen / Wild Life
––––––––––––––––––––––––––––––––––––––––

DR Peak RMS Duration Track
––––––––––––––––––––––––––––––––––––––––
DR11 -0.18 dB -15.47 dB 28:52 01-Session One
DR11 -0.24 dB -15.55 dB 9:46 02-Zwielicht
DR10 -0.35 dB -13.87 dB 17:35 03-Mangrove Dance
DR11 -0.26 dB -15.22 dB 5:30 04-Moonlight In Your Face
DR10 -0.21 dB -12.61 dB 5:09 05-Walpurgisnacht (Fast Lane)
DR12 -0.23 dB -17.11 dB 13:20 06-Lucid Dreamer
DR10 -0.50 dB -14.11 dB 17:09 07-Zeitreisende
DR10 -0.23 dB -13.98 dB 20:58 08-Spotlights
DR12 -0.24 dB -15.66 dB 14:40 09-Aconcagua
DR11 -0.23 dB -16.20 dB 13:29 10-Der Dorsch
DR10 -0.35 dB -15.05 dB 6:12 11-Vogelflug
DR10 -0.23 dB -14.78 dB 21:27 12-Flussaufwärts
––––––––––––––––––––––––––––––––––––––––

Number of tracks: 12
Official DR value: DR11

Samplerate: 44100 Hz
Channels: 2
Bits per sample: 24
Bitrate: 1455 kbps
Codec: FLAC
================================================================================
Any questions - support@pro-jazz.com. Есть вопросы - support@pro-jazz.com
23:39
289
Нет комментариев. Ваш будет первым!