Вы используете незарегистрированную версию компонента "Вкладки"!

Поиск

2020 Malia - The Garden of Eve {MPS} [24-48]

2020 Malia - The Garden of Eve {MPS} [24-48]
Стили:
Битрейт аудио:
lossless
Доп. инфо:

Формат записи/Источник записи: [TR24][OF]
Наличие водяных знаков: Нет
Год издания/переиздания диска: 2020
Издатель (лейбл): MPS
Продолжительность: 00:41:55
Наличие сканов в содержимом раздачи: Только обложка альбома
Источник (релизер): qobuz

Контейнер: FLAC (*.flac)
Тип рипа: tracks
Разрядность: 24/48
Формат: PCM
Количество каналов: 2.0

Доп. информация: https://www.malia-music.com/

Лог проверки качества
foobar2000 1.1.15 / Dynamic Range Meter 1.1.1
log date: 2020-03-20 11:55:00

--------------------------------------------------------------------------------
Analyzed: Malia / The Garden of Eve
--------------------------------------------------------------------------------

DR         Peak         RMS     Duration Track
--------------------------------------------------------------------------------
DR10      -0.38 dB   -12.41 dB      3:52 01-Hope
DR10      -0.37 dB   -12.06 dB      3:14 02-Last Show
DR11      -0.35 dB   -12.40 dB      3:31 03-The Thrill Is Gone
DR11      -0.37 dB   -12.65 dB      3:07 04-Me & My Girlfriend
DR10      -0.34 dB   -11.86 dB      2:37 05-Two Seedlings
DR9       -0.36 dB   -10.36 dB      2:56 06-Lord, I Feel so Bad
DR11      -0.38 dB   -13.20 dB      4:04 07-Restoration
DR10      -0.37 dB   -11.84 dB      3:40 08-Death
DR10      -0.36 dB   -12.49 dB      3:55 09-Freedom at Last
DR10      -0.39 dB   -12.33 dB      3:53 10-Moving Away
DR10      -0.39 dB   -12.56 dB      3:55 11-Honeymoon Is Over
DR10      -0.35 dB   -11.84 dB      3:12 12-Love in Vain
--------------------------------------------------------------------------------

Number of tracks:  12
Official DR value: DR10

Samplerate:        48000 Hz
Channels:          2
Bits per sample:   24
Bitrate:           1552 kbps
Codec:             FLAC
================================================================================
Any questions - support@pro-jazz.com. Есть вопросы - support@pro-jazz.com
22:24
293
Нет комментариев. Ваш будет первым!