Вы используете незарегистрированную версию компонента "Вкладки"!

Поиск

2020 Farnell Newton - Rippin' & Runnin' {Posi-Tone} [24-88,2]

2020 Farnell Newton - Rippin' & Runnin' {Posi-Tone} [24-88,2]
Стили:
Издатель (лейбл):
Битрейт аудио:
lossless
Доп. инфо:

• Формат записи | Источник записи: [TR24][OF]
• Наличие водяных знаков: Нет
• Год издания релиза: 2020
• Лейбл: Posi-Tone Records
• Продолжительность: 00:46:02
• Источник: internet
• WEB релиз: ссылка
• Контейнер: FLAC (*.flac)
• Тип рипа: tracks
• Разрядность: 24/88,2
• Формат: PCM
• Количество каналов: 2.0
• Наличие сканов: front

Лог проверки качества
foobar2000 1.4.2 / Замер динамического диапазона (DR) 1.1.1
Дата отчёта:  2020-03-20 10:48:52

--------------------------------------------------------------------------------
Анализ:   Farnell Newton / Rippin' & Runnin'
--------------------------------------------------------------------------------

DR         Пики         RMS           Продолжительность трека
--------------------------------------------------------------------------------
DR10      -0.98 дБ   -12.68 дБ      4:42 01/08-The Roots
DR11      -0.98 дБ   -13.35 дБ      5:42 02/08-The Five A.M. Strut
DR10      -0.98 дБ   -12.99 дБ      5:33 03/08-Another Day Another Jones
DR12      -0.98 дБ   -14.46 дБ      5:49 04/08-Holding Still
DR13      -0.98 дБ   -16.68 дБ      4:29 05/08-Little Bird Rose
DR11      -0.98 дБ   -13.50 дБ      6:46 06/08-Gas Station Hot Dog
DR11      -0.98 дБ   -13.40 дБ      6:15 07/08-Rippin' & Runnin'
DR11      -0.98 дБ   -14.47 дБ      6:47 08/08-Come Sunday
--------------------------------------------------------------------------------

Количество треков: 8
Реальные значения DR: DR11

Частота:   88200 Гц
Каналов:   2
Разрядность:   24
Битрейт:   2768 кбит/с
Кодек:   FLAC
================================================================================
Any questions - support@pro-jazz.com. Есть вопросы - support@pro-jazz.com
14:21
317
Нет комментариев. Ваш будет первым!