Вы используете незарегистрированную версию компонента "Вкладки"!

Поиск

2020 Mahsa Vahdat - Enlighten the Night {Kirkelig Kulturverksted} [24-96]

2020 Mahsa Vahdat - Enlighten the Night {Kirkelig Kulturverksted} [24-96]
Битрейт аудио:
lossless
Доп. инфо:

Формат записи/Источник записи: [TR24][OF]
Наличие водяных знаков: Нет
Год издания/переиздания диска: 2020
Издатель (лейбл): Kirkelig Kulturverksted
Продолжительность: 00:46:43
Наличие сканов в содержимом раздачи: Только обложка альбома
Источник (релизер): qobuz

Контейнер: FLAC (*.flac)
Тип рипа: tracks
Разрядность: 24/96
Формат: PCM
Количество каналов: 2.0

Лог проверки качества
foobar2000 1.1.15 / Dynamic Range Meter 1.1.1
log date: 2020-06-19 15:42:11

--------------------------------------------------------------------------------
Analyzed: Mahsa Vahdat / Enlighten the Night
--------------------------------------------------------------------------------

DR         Peak         RMS     Duration Track
--------------------------------------------------------------------------------
DR8       -0.90 dB   -12.86 dB      4:20 01-The Act of Freedom
DR12      -0.90 dB   -16.60 dB      4:07 02-Where is the Home of the Wind
DR9       -0.90 dB   -13.22 dB      3:56 03-Farewell
DR11      -0.90 dB   -16.95 dB      3:22 04-Precious Cup
DR10      -0.90 dB   -13.67 dB      3:40 05-Bootarab
DR10      -0.90 dB   -15.74 dB      4:33 06-Enlighten the Night
DR11      -0.90 dB   -15.18 dB      4:37 07-The Moon Beams
DR11      -0.90 dB   -15.65 dB      6:04 08-Ney Davoud
DR10      -0.90 dB   -13.64 dB      2:44 09-The Roses and the Meadow
DR12      -0.90 dB   -16.64 dB      1:28 10-If I Were God
DR12      -0.90 dB   -16.33 dB      1:33 11-Lovelorn
DR13      -0.90 dB   -17.80 dB      2:24 12-The Dawn
DR10      -0.90 dB   -13.59 dB      3:53 13-I Will Build You Again, My Country
--------------------------------------------------------------------------------

Number of tracks:  13
Official DR value: DR11

Samplerate:        96000 Hz
Channels:          2
Bits per sample:   24
Bitrate:           2692 kbps
Codec:             FLAC
================================================================================
Any questions - support@pro-jazz.com. Есть вопросы - support@pro-jazz.com
14:54
287
Нет комментариев. Ваш будет первым!