Вы используете незарегистрированную версию компонента "Вкладки"!

Поиск

2020 Lucian Ban, John Surman, Mat Maneri - Transylvanian Folk Songs {Sunnyside} [24-48]

2020 Lucian Ban, John Surman, Mat Maneri - Transylvanian Folk Songs {Sunnyside} [24-48]
Издатель (лейбл):
Битрейт аудио:
lossless
Доп. инфо:

Формат записи/Источник записи: [TR24][OF]
Наличие водяных знаков: Нет
Год издания: 2020
Продолжительность: 01:03:59
Наличие сканов в содержимом раздачи: Только обложка альбома
Контейнер: FLAC (*.flac)
Тип рипа: tracks
Разрядность: 24/48
Формат: PCM
Количество каналов: 2.0
Источник (релизер): qobuz.com

Лог проверки качества
foobar2000 1.4.8 / Dynamic Range Meter 1.1.1
log date: 2020-05-16 07:30:35

--------------------------------------------------------------------------------
Analyzed: Lucian Ban / Transylvanian Folk Songs
--------------------------------------------------------------------------------

DR         Peak         RMS     Duration Track
--------------------------------------------------------------------------------
DR10      -0.60 dB   -15.14 dB      7:39 01-The Dowry Song
DR12      -0.60 dB   -18.68 dB      6:08 02-Up There
DR10      -1.63 dB   -15.83 dB      8:02 03-Violin Song
DR11      -2.23 dB   -18.77 dB      7:57 04-The Return
DR9       -1.96 dB   -15.21 dB      5:29 05-The Mighty Sun
DR12      -3.24 dB   -21.32 dB      6:38 06-What A Great Night This Is, A Messenger Was Born
DR12      -1.05 dB   -18.05 dB      6:53 07-Carol
DR11      -2.60 dB   -18.71 dB      9:17 08-Bitter Love Song
DR10      -0.96 dB   -14.43 dB      6:03 09-Transylvanian Dance
--------------------------------------------------------------------------------

Number of tracks:  9
Official DR value: DR11
Samplerate:        48000 Hz
Channels:          2
Bits per sample:   24
Bitrate:           1485 kbps
Codec:             FLAC
================================================================================
Any questions - support@pro-jazz.com. Есть вопросы - support@pro-jazz.com
09:08
259
Нет комментариев. Ваш будет первым!