Поиск

1957 Abbey Lincoln - That's Him! (2018) {RevOla} [24-44,1]

1957 Abbey Lincoln - That's Him! (2018) {RevOla} [24-44,1]
Стили:
Битрейт аудио:
lossless
Треклист:

01 - Strong Man 05:05
02 - Happiness Is Just a Thing Called Joe 05:57
03 - My Man 03:57
04 - Tender as a Rose 02:59
05 - That's Him 03:26
06 - I Must Have That Man 03:59
07 - Porgy 04:27
08 - When a Woman Loves a Man 04:29
09 - Can't Help Lovin' Dat Man 03:01
10 - Don't Explain 06:41
11 - I Must Have That Man take 3 03:56
12 - Porgy take 1 04:28

Доп. инфо:

Формат записи/Источник записи: [TR24][OF]
Издание: Remastered
Год издания/переиздания диска: 1957/2018
Издатель (лейбл): RevOla
Продолжительность: 00:52:25
Наличие сканов в содержимом раздачи: Нет

Контейнер: FLAC (*.flac)
Тип рипа: tracks
Разрядность: 24/44,1
Количество каналов: 2.0

Источник (релизер): Qobuz

Лог проверки качества
foobar2000 1.3.16 / Dynamic Range Meter 1.1.1
log date: 2019-01-23 22:36:40

--------------------------------------------------------------------------------
Analyzed: Abbey Lincoln / That's Him!
--------------------------------------------------------------------------------

DR         Peak         RMS     Duration Track
--------------------------------------------------------------------------------
DR5        0.00 dB    -7.08 dB      5:06 01-Strong Man
DR8        0.00 dB   -11.49 dB      5:57 02-Happiness Is Just a Thing Called Joe
DR7        0.00 dB   -10.44 dB      3:58 03-My Man
DR11       0.00 dB   -16.32 dB      3:00 04-Tender as a Rose
DR8        0.00 dB   -11.28 dB      3:26 05-That's Him
DR4        0.00 dB    -6.41 dB      3:59 06-I Must Have That Man
DR8        0.00 dB   -10.39 dB      4:27 07-Porgy
DR3        0.00 dB    -6.79 dB      4:30 08-When a Woman Loves a Man
DR4        0.00 dB    -7.31 dB      3:02 09-Can't Help Lovin' Dat Man
DR8        0.00 dB   -10.03 dB      6:42 10-Don't Explain
DR4        0.00 dB    -6.54 dB      3:56 11-I Must Have That Man (take 3)
DR8        0.00 dB    -9.66 dB      4:28 12-Porgy (take 1)
--------------------------------------------------------------------------------

Number of tracks:  12
Official DR value: DR6

Samplerate:        44100 Hz
Channels:          2
Bits per sample:   24
Bitrate:           1573 kbps
Codec:             FLAC
================================================================================
Приватный:
Нет (DHT включён)
Размер:
521.79 Мб (547,135,659 байт) » файлов: 17
Участники:
1 раздают, 0 качают (1 участников всего)
Внешние участники:
--- [ Обновить ]
No seeders - write a personal message to user M0p94ok. Нет сидеров - пишите личное сообщение пользователю M0p94ok.
10:05
20
Нет комментариев. Ваш будет первым!