Поиск

2020 Karate Boogaloo - Carn The Boogers {College of Knowledge} [24-44.1]

2020 Karate Boogaloo - Carn The Boogers {College of Knowledge} [24-44.1]
Стили:
Дата издания диска:
1 мая 2020
Носитель:
WEB
Формат:
PCM
Тип рипа:
tracks
Контейнер:
FLAC (*.flac)
Количество каналов:
2.0
Разрядность/ЧД:
24/44,1
Битрейт аудио:
lossless
Время звучания:
00:42:20
Наличие сканов:
только обложка

Треклист:

01. Marriage for All or None at All  04:40
02. Funky Mummy  03:55
03. Slappy  02:46
04. Haunted Boat (Buyer's Remorse)  04:43
05. The Lawsuit  05:48
06. Instrumental Interlude #1  00:53
07. Hump Day Hymn  03:10
08. Do I Cut the Blue Wire or the Limewire?  04:54
09. Poppy  02:40
10. I Don't Get Art  02:11
11. Space Language  05:00
12. Remember?  01:34

Лог проверки качества
foobar2000 1.4.2 / Dynamic Range Meter 1.1.1
log date: 2021-07-26 20:55:54
--------------------------------------------------------------------------------
Analyzed: Karate Boogaloo / Carn The Boogers
--------------------------------------------------------------------------------
DR         Peak         RMS     Duration Track
--------------------------------------------------------------------------------
DR5        0.00 dB    -6.54 dB      4:40 01-Marriage for All or None at All
DR6        0.00 dB    -7.79 dB      3:56 02-Funky Mummy
DR6        0.00 dB    -7.72 dB      2:47 03-Slappy
DR5        0.00 dB    -6.66 dB      4:43 04-Haunted Boat (Buyer's Remorse)
DR5        0.00 dB    -7.22 dB      5:49 05-The Lawsuit
DR8        0.00 dB   -11.54 dB      0:53 06-Instrumental Interlude #1
DR5        0.00 dB    -6.97 dB      3:11 07-Hump Day Hymn
DR8        0.00 dB   -12.09 dB      4:55 08-Do I Cut the Blue Wire or the Limewire?
DR6        0.00 dB    -8.84 dB      2:41 09-Poppy
DR6        0.00 dB    -7.46 dB      2:11 10-I Don't Get Art
DR5        0.00 dB    -7.59 dB      5:01 11-Space Language
DR6        0.00 dB    -7.95 dB      1:34 12-Remember?
--------------------------------------------------------------------------------
Number of tracks:  12
Official DR value: DR6
Samplerate:        44100 Hz
Channels:          2
Bits per sample:   24
Bitrate:           1363 kbps
Codec:             FLAC
================================================================================
20:40
422
Нет комментариев. Ваш будет первым!