Поиск

2012 Moskus - Salmesykkel {Hubro} [24-96]

2012 Moskus - Salmesykkel {Hubro} [24-96]
Дата издания диска:
24 августа 2012
Издатель (лейбл):
Носитель:
WEB
Формат:
PCM
Тип рипа:
tracks
Контейнер:
FLAC (*.flac)
Количество каналов:
2.0
Разрядность/ЧД:
24/96
Битрейт аудио:
lossless
Время звучания:
00:41:01
Наличие сканов:
только обложка

Треклист:

01 - Salmesykkel (05:48)
02 - Kloster (01:03)
03 - Bibelbeltet (02:49)
04 - Nar Det Regne Pa Presten Dryp Det Pa Klokkarn (06:36)
05 - Farlig Norsk Hengebru (05:34)
06 - Dagen Derpa Og Veien Tellbaksjatt (04:24)
07 - Creperie De Marie (02:23)
08 - Ville Vesten (05:16)
09 - Snorres Saga (03:13)
10 - Moskus (03:50)

Лог проверки качества
foobar2000 1.4.2 / Dynamic Range Meter 1.1.1
log date: 2021-07-26 20:59:15
--------------------------------------------------------------------------------
Analyzed: Moskus / Salmesykkel
--------------------------------------------------------------------------------
DR         Peak         RMS     Duration Track
--------------------------------------------------------------------------------
DR13      -0.86 dB   -18.37 dB      5:49 01-Salmesykkel
DR15      -6.69 dB   -29.15 dB      1:04 02-Kloster
DR13      -3.48 dB   -20.81 dB      2:50 03-Bibelbeltet
DR13      -0.14 dB   -18.17 dB      6:36 04-NГҐr Det Regne PГҐ Presten Dryp Det PГҐ Klokkarn
DR14      -0.29 dB   -17.36 dB      5:35 05-Farlig Norsk Hengebru
DR17      -0.19 dB   -23.07 dB      4:25 06-Dagen DerpГҐ Og Veien Tellbaksjatt
DR15      -0.19 dB   -20.02 dB      2:23 07-Creperie De Marie
DR16      -0.19 dB   -21.83 dB      5:17 08-Ville Vesten
DR15      -6.67 dB   -27.81 dB      3:14 09-Snorres Saga
DR14      -3.14 dB   -23.81 dB      3:50 10-Moskus
--------------------------------------------------------------------------------
Number of tracks:  10
Official DR value: DR15
Samplerate:        96000 Hz
Channels:          2
Bits per sample:   24
Bitrate:           2104 kbps
Codec:             FLAC
================================================================================
По всем вопросам пишите личное сообщение пользователю M0p94ok.
19:47
195
Нет комментариев. Ваш будет первым!