Вы используете незарегистрированную версию компонента "Вкладки"!

Поиск

2020 Kandace Springs - The Women Who Raised Me {Blue Note} [24-96]

2020 Kandace Springs - The Women Who Raised Me {Blue Note} [24-96]
Стили:
Издатель (лейбл):
Битрейт аудио:
lossless
Доп. инфо:

Формат записи/Источник записи: [TR24][OF]
Год издания/переиздания диска: 2020
Продолжительность: 00:53:07
Наличие сканов в содержимом раздачи: Нет

Контейнер: FLAC (*.flac)
Тип рипа: tracks
Разрядность: 24/96
Количество каналов: 2.0

Источник (релизер): Qobuz

Лог проверки качества
foobar2000 1.4.3 / Dynamic Range Meter 1.1.1
log date: 2020-03-28 15:47:52

--------------------------------------------------------------------------------
Analyzed: Kandace Springs / The Women Who Raised Me
--------------------------------------------------------------------------------

DR         Peak         RMS     Duration Track
--------------------------------------------------------------------------------
DR8       -0.30 dB   -10.57 dB      2:59 01-Devil May Care
DR7       -0.37 dB   -10.52 dB      6:01 02-Angel Eyes
DR6       -0.30 dB    -9.83 dB      3:58 03-I Put A Spell On You
DR7       -0.48 dB   -11.01 dB      4:44 04-Pearls
DR8       -0.34 dB   -10.41 dB      5:31 05-Ex-Factor
DR7       -0.38 dB   -10.40 dB      4:35 06-I Can't Make You Love Me
DR8       -0.38 dB   -10.57 dB      3:56 07-Gentle Rain
DR8       -0.34 dB   -10.46 dB      5:00 08-Solitude
DR9       -0.40 dB   -12.72 dB      3:36 09-The Nearness Of You
DR8       -0.30 dB   -12.63 dB      3:59 10-What Are You Doing The Rest Of Your Life
DR8       -0.30 dB   -12.01 dB      5:17 11-Killing Me Softly With His Song
DR10      -3.66 dB   -16.63 dB      3:36 12-Strange Fruit
--------------------------------------------------------------------------------

Number of tracks:  12
Official DR value: DR8

Samplerate:        96000 Hz
Channels:          2
Bits per sample:   24
Bitrate:           2439 kbps
Codec:             FLAC
================================================================================
Any questions - support@pro-jazz.com. Есть вопросы - support@pro-jazz.com
19:08
265
Нет комментариев. Ваш будет первым!