Вы используете незарегистрированную версию компонента "Вкладки"!

Поиск

2016 Russell Malone - All About Melody {HighNote} [24-96]

2016 Russell Malone - All About Melody {HighNote} [24-96]
Стили:
Издатель (лейбл):
Битрейт аудио:
lossless
Доп. инфо:

Формат записи/Источник записи: [TR24][OF]
Год издания/переиздания диска: 2016
Продолжительность: 00:50:20
Наличие сканов в содержимом раздачи: Буклет PDF

Контейнер: FLAC (*.flac)
Тип рипа: tracks
Разрядность: 24/96
Количество каналов: 2.0

Источник (релизер): Qobuz

Лог проверки качества
foobar2000 1.4.3 / Dynamic Range Meter 1.1.1
log date: 2020-03-28 07:42:29

--------------------------------------------------------------------------------
Analyzed: Russell Malone / All About Melody
--------------------------------------------------------------------------------

DR         Peak         RMS     Duration Track
--------------------------------------------------------------------------------
DR7       -0.50 dB    -9.77 dB      5:15 01-On the Real Side
DR7       -0.50 dB    -9.78 dB      4:33 02-Message to Jim Hall
DR17      -1.78 dB   -22.55 dB      0:25 03-Message from Jim Hall
DR7       -0.50 dB    -9.55 dB      7:36 04-Nice Lady
DR6       -0.50 dB    -9.75 dB      6:12 05-Sound for Sore Ears
DR10      -4.31 dB   -18.60 dB      2:26 06-When a Man Loves a Woman
DR8       -0.50 dB   -11.74 dB      3:47 07-Saving All My Love for You
DR6       -0.50 dB    -8.90 dB      4:49 08-Jive Hoot
DR10      -0.50 dB   -13.56 dB      5:51 09-Haunted Heart
DR5       -0.50 dB    -7.83 dB      6:50 10-Biskit
DR11      -1.19 dB   -17.29 dB      2:41 11-He's Gone Away
--------------------------------------------------------------------------------

Number of tracks:  11
Official DR value: DR9

Samplerate:        96000 Hz
Channels:          2
Bits per sample:   24
Bitrate:           2309 kbps
Codec:             FLAC
================================================================================
Any questions - support@pro-jazz.com. Есть вопросы - support@pro-jazz.com
19:03
285
Нет комментариев. Ваш будет первым!