Вы используете незарегистрированную версию компонента "Вкладки"!

Поиск

2020 Julia Biel - Black and White, Vol. 1 {Khanti} [24-48]

2020 Julia Biel - Black and White, Vol. 1 {Khanti} [24-48]
Дата записи диска:
март 2019
Место записи:
Rokit Studios, London, UK
Дата издания диска:
28 февраля 2020
Битрейт аудио:
lossless
Доп. инфо:

• Формат записи | Источник записи: [TR24][OF]
• Наличие водяных знаков: Нет
• Год издания релиза: 2020
• Лейбл: Khanti records
• Продолжительность: 00:43:58
• Источник: internet
• WEB релиз: ссылка
• Контейнер: FLAC (*.flac)
• Тип рипа: tracks
• Разрядность: 24/48
• Формат: PCM
• Количество каналов: 2.0
• Наличие сканов: front

Лог проверки качества
foobar2000 1.4.2 / Dynamic Range Meter 1.1.1
log date: 2020-02-29 12:19:04

--------------------------------------------------------------------------------
Analyzed: Julia Biel / Black and White, Vol. 1
--------------------------------------------------------------------------------

DR         Peak         RMS     Duration Track
--------------------------------------------------------------------------------
DR11      -1.66 dB   -15.26 dB      5:00 01-Broken Little Pieces (Solo piano and voice version)
DR10       0.00 dB   -13.54 dB      4:24 02-Diamond Dust (Solo piano and voice version)
DR11      -5.84 dB   -21.67 dB      0:21 03-Room with a View (Interlude 1)
DR12      -0.21 dB   -15.55 dB      4:35 04-The Wilderness (Solo piano and voice version)
DR12       0.00 dB   -15.34 dB      4:34 05-Three Little Words (Solo Piano and Voice Version)
DR12      -0.03 dB   -16.72 dB      5:05 06-Shhh… (Solo piano and voice version)
DR12      -0.55 dB   -18.37 dB      5:45 07-Licence to be Cruel (Solo piano and voice version)
DR10       0.00 dB   -11.51 dB      3:46 08-Little Girl (Solo piano and voice version)
DR9       -1.83 dB   -15.56 dB      0:22 09-Onwards (Interlude 2)
DR11      -0.09 dB   -15.29 dB      4:58 10-Say it Out Loud (Solo piano and voice version)
DR11      -0.70 dB   -13.92 dB      5:09 11-You Could Turn a Rainbow Grey (Solo piano and voice version)
--------------------------------------------------------------------------------

Number of tracks:  11
Official DR value: DR11

Samplerate:        48000 Hz
Channels:          2
Bits per sample:   24
Bitrate:           714 kbps
Codec:             FLAC
================================================================================
Any questions - support@pro-jazz.com. Есть вопросы - support@pro-jazz.com
14:25
267
Нет комментариев. Ваш будет первым!