Поиск

2020 Emie R Roussel Trio - Rythme De Passage {UNI musiqc} [24-88,2]

2020 Emie R Roussel Trio - Rythme De Passage {UNI musiqc} [24-88,2]
Стили:
Битрейт аудио:
lossless
Доп. инфо:

• Формат записи | Источник записи: [TR24][OF]
• Наличие водяных знаков: Нет
• Год издания релиза: 2020
• Лейбл: UNI musiqc
• Продолжительность: 00:46:10
• Источник: internet
• WEB релиз: ссылка
• Контейнер: FLAC (*.flac)
• Тип рипа: tracks
• Разрядность: 24/88,2
• Формат: PCM
• Количество каналов: 2.0
• Наличие сканов: booklet

Лог проверки качества
foobar2000 1.4.2 / Dynamic Range Meter 1.1.1
log date: 2020-02-29 12:00:33

--------------------------------------------------------------------------------
Analyzed: Emie R Roussel Trio / Rythme de passage
--------------------------------------------------------------------------------

DR         Peak         RMS     Duration Track
--------------------------------------------------------------------------------
DR10      -0.11 dB   -12.34 dB      6:56 01-Yatse Club
DR11      -0.11 dB   -13.72 dB      6:48 02-Rythme de passage
DR9       -0.11 dB   -10.94 dB      4:27 03-Agent orange
DR9       -0.11 dB   -12.82 dB      6:14 04-Maltagliati
DR8       -0.11 dB   -10.50 dB      5:31 05-Taniata
DR10      -0.11 dB   -13.13 dB      3:36 06-Est
DR9       -0.11 dB   -12.40 dB      6:33 07-Loners
DR9       -0.11 dB   -12.72 dB      6:06 08-Empreinte
--------------------------------------------------------------------------------

Number of tracks:  8
Official DR value: DR9

Samplerate:        88200 Hz
Channels:          2
Bits per sample:   24
Bitrate:           2577 kbps
Codec:             FLAC
================================================================================
No seeders - write personal message to M0p94ok. Any questions - support@pro-jazz.com.
Нет сидеров - пишите в личку M0p94ok. Есть вопросы - support@pro-jazz.com
22:59
449
Нет комментариев. Ваш будет первым!