Вы используете незарегистрированную версию компонента "Вкладки"!

Поиск

2020 Joey Alexander - Warna {Verve} [24-96]

2020 Joey Alexander - Warna {Verve} [24-96]
Стили:
Издатель (лейбл):
Доп. инфо:

Формат записи/Источник записи: [TR24][OF]
Наличие водяных знаков: Нет
Год издания: 2020
Продолжительность: 01:02:25
Наличие сканов в содержимом раздачи: Только обложка альбома
Контейнер: FLAC (*.flac)
Тип рипа: tracks
Разрядность: 24/96
Формат: PCM
Количество каналов: 2.0
Источник (релизер): highresaudio.com

Лог проверки качества
foobar2000 1.4.8 / Dynamic Range Meter 1.1.1
log date: 2020-02-02 13:30:31

--------------------------------------------------------------------------------
Analyzed: Joey Alexander / Warna
--------------------------------------------------------------------------------

DR         Peak         RMS     Duration Track
--------------------------------------------------------------------------------
DR8       -0.28 dB   -11.25 dB      6:45 01-Warna
DR9       -0.28 dB   -11.72 dB      5:12 02-Mosaic (Of Beauty)
DR9       -0.28 dB   -12.06 dB      5:34 03-Lonely Streets
DR9       -0.28 dB   -11.76 dB      4:26 04-Downtime
DR12      -0.52 dB   -16.06 dB      3:46 05-Affirmation I
DR8       -0.28 dB   -10.41 dB      7:16 06-Inner Urge
DR9       -0.28 dB   -11.79 dB      5:24 07-We Here
DR9       -0.20 dB   -13.45 dB      4:09 08-Tis Our Prayer
DR10      -0.28 dB   -12.23 dB      4:36 09-Fragile
DR11      -0.28 dB   -14.65 dB      5:50 10-Our Story
DR10      -0.28 dB   -13.67 dB      5:48 11-Affirmation III
DR10      -0.28 dB   -13.18 dB      3:37 12-The Light
--------------------------------------------------------------------------------

Number of tracks:  12
Official DR value: DR9
Samplerate:        96000 Hz
Channels:          2
Bits per sample:   24
Bitrate:           2846 kbps
Codec:             FLAC
================================================================================
Any questions - support@pro-jazz.com. Есть вопросы - support@pro-jazz.com
11:18
303
Нет комментариев. Ваш будет первым!