Поиск

1965 J.J. Johnson - Goodies (2015) {RCA, Legacy} [24-96]

1965 J.J. Johnson - Goodies (2015) {RCA, Legacy} [24-96]
Стили:
Дата записи диска:
12-20 июля 1965
Место записи:
RCA Victor's Studio A, New York City
Издатель (лейбл):
Треклист:

01 - Feeling Good (From "The Roar of the Greasepaint--The Smell of the Crowd") 02:29
02 - The Seventh Son 02:48
03 - How Insensitive 02:50
04 - Pense à moi 02:06
05 - 008 02:11
06 - In the Name of Love 02:08
07 - G'won Train 03:02
08 - No Particular Place to Go 02:14
09 - Agua de Beber 02:33
10 - Incidental Blues 02:45
11 - I'm All Smiles 02:01
12 - Billy Boy 02:54

Recorded at RCA Victor's Studio A in New York City on July 12, 1965 (tracks 4 & 9), July 13, 1965 (tracks 1, 3, 7 & 11), July 19, 1965 (tracks 2, 6 & 8) and July 20, 1965 (tracks 5, 10 & 12)

Доп. инфо:

Формат записи/Источник записи: [TR24][OF]
Издание: Remastered
Год издания/переиздания диска: 1965/2015
Продолжительность: 00:29:56
Наличие сканов в содержимом раздачи: Нет

Контейнер: FLAC (*.flac)
Тип рипа: tracks
Разрядность: 24/96
Количество каналов: 2.0

Источник (релизер): Qobuz

Лог проверки качества
foobar2000 1.4.3 / Dynamic Range Meter 1.1.1
log date: 2020-02-01 18:41:43

--------------------------------------------------------------------------------
Analyzed: J.J. Johnson / Goodies (1-10)
          Slide Hampton / Goodies (11-12)
--------------------------------------------------------------------------------

DR         Peak         RMS     Duration Track
--------------------------------------------------------------------------------
DR11      -1.08 dB   -14.70 dB      2:29 01-Feeling Good (From "The Roar of the Greasepaint--The Smell of the Crowd")
DR9       -4.50 dB   -17.47 dB      2:50 03-How Insensitive
DR10      -0.88 dB   -14.21 dB      2:06 04-Pense à moi
DR11      -2.18 dB   -17.24 dB      2:11 05-008
DR11      -0.82 dB   -13.67 dB      3:02 07-G'won Train
DR10      -0.03 dB   -12.97 dB      2:14 08-No Particular Place to Go
DR11      -0.75 dB   -14.22 dB      2:33 09-Agua de Beber
DR12      -1.69 dB   -17.01 dB      2:45 10-Incidental Blues
DR10      -3.31 dB   -16.81 dB      2:01 11-I'm All Smiles
DR11      -1.37 dB   -15.89 dB      2:54 12-Billy Boy
DR11      -0.60 dB   -13.79 dB      2:48 02-The Seventh Son
DR11      -0.51 dB   -14.43 dB      2:08 06-In the Name of Love
--------------------------------------------------------------------------------

Number of tracks:  12
Official DR value: DR11

Samplerate:        96000 Hz
Channels:          2
Bits per sample:   24
Bitrate:           2978 kbps
Codec:             FLAC
================================================================================
Приватный:
Нет (DHT включён)
Размер:
643.87 Мб (675,146,334 байт) » файлов: 16
Участники:
0 раздают, 0 качают (0 участников всего)
Внешние участники:
5 раздают, 1 качают (6 участников всего) [ Обновить ]
Скорость:
0/c 92.40 Кб/c
No seeders - write a personal message to user M0p94ok. Нет сидеров - пишите личное сообщение пользователю M0p94ok.
10:48
46
Нет комментариев. Ваш будет первым!