Поиск

2020 Jamie Saft - Atlas (feat. Joe Morris, Bradley Jones & Charles Downs) {Veal} [24-96]

2020 Jamie Saft - Atlas (feat. Joe Morris, Bradley Jones & Charles Downs) {Veal} [24-96]
Стили:
Дата издания диска:
10 июля 2020
Носитель:
WEB
Формат:
PCM
Тип рипа:
tracks
Контейнер:
FLAC (*.flac)
Количество каналов:
2.0
Разрядность/ЧД:
24/96
Битрейт аудио:
lossless
Наличие сканов:
только обложка

This album is available on our DC++ hub: dc.pro-jazz.com
Этот альбом доступен на нашем DC++ хабе: dc.pro-jazz.com

1. Atlas 1 (feat. Joe Morris, Bradley Jones & Charles Downs)  13:58
2. Atlas 2 (feat. Joe Morris, Bradley Jones & Charles Downs)  03:53
3. Atlas 3 (feat. Joe Morris, Bradley Jones & Charles Downs)  12:26
4. Atlas 4 (feat. Joe Morris, Bradley Jones & Charles Downs)  11:16
5. Atlas 5 (feat. Joe Morris, Bradley Jones & Charles Downs)  13:42

Состав:
  • Jamie Saft — Fender Rhodes, organ
  • Joe Morris — electric guitar
  • Bradley Jones — acoustic bass
  • Charles Downs- drums

Recorded live by Randy Thaler at Atlas Studios, Newburgh, NY
Mixed and mastered by Jamie Saft at Potterville International Sound, NY
All songs written by Jamie Saft, Joe Morris, Bradley Jones, Charles Downs
All songs published by PAIN MANAGEMENT (ASCAP) and RITI publishing (ASCAP)
Special thanks to James Keepnews, Ben Young, Atlas Studios, and Craig Nixon

Лог проверки качества
foobar2000 1.6.16 / Dynamic Range Meter 1.1.1
log date: 2023-08-16 23:12:28

--------------------------------------------------------------------------------
Analyzed: Jamie Saft / Atlas (feat. Joe Morris, Bradley Jones & Charles Downs)
--------------------------------------------------------------------------------

DR         Peak         RMS     Duration Track
--------------------------------------------------------------------------------
DR7       -0.07 dB    -9.34 dB     13:58 01-Atlas 1 (feat. Joe Morris, Bradley Jones & Charles Downs)
DR13      -2.53 dB   -19.23 dB      3:54 02-Atlas 2 (feat. Joe Morris, Bradley Jones & Charles Downs)
DR6       -0.07 dB    -8.84 dB     12:27 03-Atlas 3 (feat. Joe Morris, Bradley Jones & Charles Downs)
DR7       -0.07 dB   -10.68 dB     11:16 04-Atlas 4 (feat. Joe Morris, Bradley Jones & Charles Downs)
DR7       -0.07 dB   -10.81 dB     13:42 05-Atlas 5 (feat. Joe Morris, Bradley Jones & Charles Downs)
--------------------------------------------------------------------------------

Number of tracks:  5
Official DR value: DR8

Samplerate:        96000 Hz
Channels:          2
Bits per sample:   24
Bitrate:           2311 kbps
Codec:             FLAC
================================================================================
23:17
269
Нет комментариев. Ваш будет первым!