Вы используете незарегистрированную версию компонента "Вкладки"!

Поиск

2020 Igor Gehenot - Cursiv {Igloo} [24-48]

2020 Igor Gehenot - Cursiv {Igloo} [24-48]
Стили:
Носитель:
WEB
Формат:
PCM
Тип рипа:
tracks+.cue
Контейнер:
FLAC (*.flac)
Количество каналов:
2.0
Разрядность/ЧД:
24/48
Битрейт аудио:
lossless
Время звучания:
00:39:18
Наличие сканов:
нет
Релизёр (источник):
M0p94ok
Лог проверки качества
foobar2000 1.4.3 / Dynamic Range Meter 1.1.1
log date: 2020-02-12 11:02:03

--------------------------------------------------------------------------------
Analyzed: Igor Gehenot, David El-Malek / Cursiv (1-5)
          Igor Gehenot / Cursiv (6-9)
--------------------------------------------------------------------------------

DR         Peak         RMS     Duration Track
--------------------------------------------------------------------------------
DR13      -0.02 dB   -16.39 dB      3:56 01-The Faith
DR10      -0.01 dB   -13.45 dB      5:18 02-Cursiv
DR10      -1.50 dB   -14.81 dB      3:58 04-Hopeful
DR11      -1.50 dB   -15.46 dB      4:40 05-Fat Cat
DR12      -1.50 dB   -18.74 dB      4:04 09-Julia  (Live Alterned Take)
DR10      -1.50 dB   -15.49 dB      4:23 03-Little Boy
DR11      -1.50 dB   -17.20 dB      3:26 06-Julia
DR9       -1.50 dB   -13.29 dB      3:57 07-Yaï
DR10      -1.50 dB   -15.19 dB      5:40 08-I Remember Clifford
--------------------------------------------------------------------------------

Number of tracks:  9
Official DR value: DR11

Samplerate:        48000 Hz
Channels:          2
Bits per sample:   24
Bitrate:           1495 kbps
Codec:             FLAC
================================================================================
Any questions - support@pro-jazz.com. Есть вопросы - support@pro-jazz.com
11:14
233
Нет комментариев. Ваш будет первым!