Вы используете незарегистрированную версию компонента "Вкладки"!

Поиск

1955 Frank Sinatra - In The Wee Small Hours (2014) {Capitol, LLC} [24-192]

1955 Frank Sinatra - In The Wee Small Hours (2014) {Capitol, LLC} [24-192]
Дата записи диска:
1 марта 1954 - 4 марта 1955
Издатель (лейбл):
Доп. инфо:

Формат записи/Источник записи: [TR24][OF]
Наличие водяных знаков: Нет
Год издания/переиздания диска: 1955/2014
Продолжительность: 49:22
Наличие сканов в содержимом раздачи: Только обложка альбома

Контейнер: FLAC (*.flac)
Тип рипа: tracks
Разрядность: 24/192
Формат: PCM
Количество каналов: 2.0

Источник: prostudiomasters.com

Лог проверки качества
foobar2000 1.3.9 / Dynamic Range Meter 1.1.1
log date: 2020-01-05 09:23:41

--------------------------------------------------------------------------------
Analyzed: Frank Sinatra / In The Wee Small Hours
--------------------------------------------------------------------------------

DR         Peak         RMS     Duration Track
--------------------------------------------------------------------------------
DR11      -0.27 dB   -15.15 dB      2:59 01-In The Wee Small Hours Of The Morning
DR11      -0.17 dB   -14.18 dB      3:30 02-Mood Indigo
DR12      -0.26 dB   -15.55 dB      2:35 03-Glad To Be Unhappy
DR12      -0.20 dB   -16.18 dB      3:40 04-I Get Along Without You Very Well
DR12      -0.24 dB   -15.82 dB      2:46 05-Deep In A Dream
DR11      -0.25 dB   -15.01 dB      3:21 06-I See Your Face Before Me
DR12      -0.27 dB   -14.80 dB      2:45 07-Can't We Be Friends?
DR12      -0.20 dB   -15.69 dB      3:08 08-When Your Lover Has Gone
DR12      -0.23 dB   -15.82 dB      2:32 09-What Is This Thing Called Love
DR10      -0.06 dB   -14.67 dB      3:15 10-Last Night When We Were Young
DR11      -0.48 dB   -15.00 dB      2:57 11-I'll Be Around
DR11      -0.12 dB   -13.75 dB      3:44 12-Ill Wind
DR11      -0.13 dB   -14.32 dB      2:39 13-It Never Entered My Mind
DR10      -0.25 dB   -13.91 dB      2:55 14-Dancing On The Ceiling
DR11      -0.27 dB   -14.71 dB      3:02 15-I'll Never Be The Same
DR12      -0.21 dB   -15.67 dB      3:33 16-This Love Of Mine
--------------------------------------------------------------------------------

Number of tracks:  16
Official DR value: DR11

Samplerate:        192000 Hz
Channels:          2
Bits per sample:   24
Bitrate:           2839 kbps
Codec:             FLAC
================================================================================
Any questions - support@pro-jazz.com. Есть вопросы - support@pro-jazz.com
13:24
286
Нет комментариев. Ваш будет первым!