Поиск

2020 I Like To Sleep - Daymare {Rune Grammofon} [24-48]

2020 I Like To Sleep - Daymare {Rune Grammofon} [24-48]
Стили:
Место записи:
Duper Studio, Bergen, Norway
Дата издания диска:
17 апреля 2020
Издатель (лейбл):
Номер по каталогу:
RCD2214
Носитель:
WEB
Формат:
PCM
Тип рипа:
tracks
Контейнер:
FLAC (*.flac)
Количество каналов:
2.0
Разрядность/ЧД:
24/48
Битрейт аудио:
lossless
Наличие сканов:
только обложка

Треклист:

1. Beyond Bedmonsters And No Sleep  13:20
2. Playing With Fire  06:35
3. Circles  04:44
4. Braintrain  05:46
5. Pause II  03:27
6. Daymare  06:43

Состав:
  •     Baritone Guitar – Nicolas Leirtrø
  •     Drums – Øyvind Leite
  •     Engineer [Engineered By], Mixed By, Mastered By – Jørgen Træen
  •     Executive-Producer – Rune Kristoffersen
  •     Producer [Produced By] – I Like To Sleep
  •     Vibraphone – Amund Storløkken Åse
Лог проверки качества
foobar2000 1.6.10 / Dynamic Range Meter 1.1.1
log date: 2023-03-13 10:11:30

--------------------------------------------------------------------------------
Analyzed: I Like To Sleep / Daymare
--------------------------------------------------------------------------------

DR         Peak         RMS     Duration Track
--------------------------------------------------------------------------------
DR6       -0.49 dB   -10.47 dB     13:20 01-Beyond Bedmonsters And No Sleep
DR7       -0.62 dB    -9.52 dB      6:36 02-Playing With Fire
DR5       -0.47 dB    -7.94 dB      4:44 03-Circles
DR6       -0.46 dB    -8.08 dB      5:46 04-Braintrain
DR10      -0.52 dB   -14.83 dB      3:28 05-Pause II
DR6       -0.47 dB    -9.68 dB      6:43 06-Daymare
--------------------------------------------------------------------------------

Number of tracks:  6
Official DR value: DR7

Samplerate:        48000 Hz
Channels:          2
Bits per sample:   24
Bitrate:           1611 kbps
Codec:             FLAC
================================================================================
12:09
357
Нет комментариев. Ваш будет первым!