Поиск

2020 Charles Mingus - At Bremen 1964 & 1975 {Sunnyside} [24-96]

2020 Charles Mingus - At Bremen 1964 & 1975 {Sunnyside} [24-96]
Дата записи диска:
16 апреля 1964
Дата издания диска:
13 ноября 2020
Издатель (лейбл):
Битрейт аудио:
lossless

Треклист:

01 - Hope So Eric 26:05
02 - Fables of Faubus 33:23
03 -Piano Solo 04:43
04 - Sophisticated Lady 03:46
05 - Parkeriana 21:45
06 - Meditations On Integration 25:01
07 - Sue’s Changes 32:43
08 - For Harry Carney 13:11
09 - Free Cell Block F, ‘Tis Nazi USA 08:26
10 - Black Bat And Poles 11:31
11 - Fables of Faubus (1965) 15:30
12 - Duke Ellington’s Sound Of Love 13:03
13 - Cherokee 01:57
14 - Remember Rockefeller At Attica 09:32
15 - Devil Blues 13:36

Доп. инфо:

Формат записи/Источник записи: [TR24][OF]
Издание: Remastered
Год издания/переиздания диска: 2020
Продолжительность: 03:54:03
Наличие сканов в содержимом раздачи: Буклет PDF

Контейнер: FLAC (*.flac)
Тип рипа: tracks
Разрядность: 24/96
Количество каналов: 2.0

Источник (релизер): Qobuz

Лог проверки качества
foobar2000 1.4.3 / Dynamic Range Meter 1.1.1
log date: 2020-11-16 06:45:17

--------------------------------------------------------------------------------
Analyzed: Charles Mingus / At Bremen 1964 & 1975
--------------------------------------------------------------------------------

DR         Peak         RMS     Duration Track
--------------------------------------------------------------------------------
DR14      -2.61 dB   -19.83 dB     26:05 01-Hope So Eric
DR14      -0.79 dB   -19.28 dB     33:23 02-Fables of Faubus
DR16      -4.15 dB   -23.89 dB      4:43 03-Piano Solo
DR15      -5.83 dB   -24.37 dB      3:46 04-Sophisticated Lady
DR14      -1.79 dB   -18.23 dB     21:45 05-Parkeriana
DR14      -0.39 dB   -19.61 dB     25:01 06-Meditations On Integration
DR13      -2.87 dB   -19.84 dB     32:43 07-Sue’s Changes
DR13      -3.43 dB   -19.59 dB     13:11 08-For Harry Carney
DR13      -2.95 dB   -18.87 dB      8:26 09-Free Cell Block F, ‘Tis Nazi USA
DR12      -2.94 dB   -17.93 dB     11:31 10-Black Bat And Poles
DR13      -1.93 dB   -18.02 dB     15:30 11-Fables of Faubus (1965)
DR13      -3.10 dB   -19.26 dB     13:03 12-Duke Ellington’s Sound Of Love
DR12      -1.67 dB   -18.41 dB      1:57 13-Cherokee
DR13      -2.13 dB   -17.96 dB      9:32 14-Remember Rockefeller At Attica
DR12      -3.35 dB   -18.23 dB     13:36 15-Devil Blues
--------------------------------------------------------------------------------

Number of tracks:  15
Official DR value: DR13

Samplerate:        96000 Hz
Channels:          2
Bits per sample:   24
Bitrate:           2699 kbps
Codec:             FLAC
================================================================================
Приватный:
Нет (DHT включён)
Размер:
4.23 Гб (4,537,601,412 байт) » файлов: 21
Участники:
3 раздают, 0 качают (3 участников всего)
Внешние участники:
2 раздают, 1 качают (3 участников всего) [ Обновить ]
Скорость:
0/c 12.94 Кб/c
No seeders - write personal message to M0p94ok. Нет сидеров - пишите в личку M0p94ok.
14:28
187
Нет комментариев. Ваш будет первым!