Вы используете незарегистрированную версию компонента "Вкладки"!

Поиск

2019 Uzeb - R3union Live {Cream} [24-44,1]

2019 Uzeb - R3union Live {Cream} [24-44,1]
Место записи:
Canada, France, Israel, Italy
Номер по каталогу:
CR 902-2
Носитель:
WEB
Формат:
PCM
Тип рипа:
tracks+.cue
Контейнер:
APE (*.ape)
Количество каналов:
2.0
Разрядность/ЧД:
24/44,1
Битрейт аудио:
lossless
Время звучания:
01:14:18
Наличие сканов:
web
Страна-производитель диска (релиза):
Canada
Релизёр (источник):
M0p94ok
Лог проверки качества
foobar2000 1.6.2 / Dynamic Range Meter 1.1.1
log date: 2021-01-02 10:26:39

--------------------------------------------------------------------------------
Analyzed: Uzeb / R3UNION LIVE
--------------------------------------------------------------------------------

DR         Peak         RMS     Duration Track
--------------------------------------------------------------------------------
DR10      -0.66 dB   -12.82 dB     10:28 01-Loose
DR9       -0.66 dB   -12.48 dB      6:53 02-Cool It
DR9       -0.66 dB   -12.41 dB      7:37 03-Junk Funk
DR8       -0.66 dB   -11.23 dB      9:28 04-Slinky
DR11      -0.66 dB   -15.15 dB      7:06 05-Goodbye Pork Pie Hat
DR10      -0.66 dB   -13.40 dB      8:20 06-Perrier Citron
DR9       -0.66 dB   -11.39 dB     13:21 07-R3UNION Suite (Mr Bill / Wake up call / Funkaleon)
DR8       -0.66 dB   -10.59 dB      7:45 08-60, rue des Lombards
DR9       -0.66 dB   -11.06 dB      3:26 09-Brass Licks
--------------------------------------------------------------------------------

Number of tracks:  9
Official DR value: DR9

Samplerate:        44100 Hz
Channels:          2
Bits per sample:   24
Bitrate:           1670 kbps
Codec:             FLAC
================================================================================
Any questions - support@pro-jazz.com. Есть вопросы - support@pro-jazz.com
11:37
216
Нет комментариев. Ваш будет первым!