Вы используете незарегистрированную версию компонента "Вкладки"!

Поиск

2020 Charles Lloyd – 8: Kindred Spirits - Live From The Lobero {Blue Note} [24-96]

2020 Charles Lloyd – 8: Kindred Spirits - Live From The Lobero {Blue Note} [24-96]
Стили:
Издатель (лейбл):
Битрейт аудио:
lossless
Доп. инфо:

Формат записи/Источник записи: [TR24][OF]
Наличие водяных знаков: Нет
Год издания: 2020
Продолжительность: 00:59:47
Наличие сканов в содержимом раздачи: Только обложка
Источник: qobuz
Контейнер: FLAC (*.flac)
Тип рипа: tracks
Разрядность: 24/96
Формат: PCM
Количество каналов: 2.0

Лог проверки качества
foobar2000 1.3.7 / Dynamic Range Meter 1.1.1
log date: 2020-02-28 12:53:49

––––––––––––––––––––––––––––––––––––––––
Analyzed: Charles Lloyd / 8: Kindred Spirits - Live From The Lobero
––––––––––––––––––––––––––––––––––––––––

DR Peak RMS Duration Track
––––––––––––––––––––––––––––––––––––––––
DR10 -0.20 dB -13.18 dB 21:06 01-Dream Weaver (Live)
DR13 -0.20 dB -15.70 dB 11:33 02-Requiem (Live)
DR11 -0.20 dB -14.56 dB 9:03 03-La Llorona (Live)
DR12 -0.20 dB -15.05 dB 18:08 04-Part 5, Ruminations (Live)
––––––––––––––––––––––––––––––––––––––––

Number of tracks: 4
Official DR value: DR11

Samplerate: 96000 Hz
Channels: 2
Bits per sample: 24
Bitrate: 2780 kbps
Codec: FLAC
================================================================================
Any questions - support@pro-jazz.com. Есть вопросы - support@pro-jazz.com
18:55
283
Нет комментариев. Ваш будет первым!