Вы используете незарегистрированную версию компонента "Вкладки"!

Поиск

2020 Andreas Schaerer & Hildegard Lernt Fliegen - The Waves Are Rising, Dear! {ACT Music} [24-96]

2020 Andreas Schaerer & Hildegard Lernt Fliegen - The Waves Are Rising, Dear! {ACT Music} [24-96]
Издатель (лейбл):
Битрейт аудио:
lossless
Доп. инфо:

• Формат записи | Источник записи: [TR24][OF]
• Наличие водяных знаков: Нет
• Год издания релиза: 2020
• Продолжительность: 00:42:56
• Источник: internet
• WEB релиз: ссылка
• Контейнер: FLAC (*.flac)
• Тип рипа: tracks
• Разрядность: 24/96
• Формат: PCM
• Количество каналов: 2.0
• Наличие сканов: booklet

Лог проверки качества
foobar2000 1.4.2 / Dynamic Range Meter 1.1.1
log date: 2020-02-29 11:52:16

--------------------------------------------------------------------------------
Analyzed: Andreas Schaerer / The Waves Are Rising, Dear!
--------------------------------------------------------------------------------

DR         Peak         RMS     Duration Track
--------------------------------------------------------------------------------
DR10      -5.51 dB   -19.85 dB      1:42 01-Dripping Point
DR10      -0.40 dB   -13.29 dB      4:20 02-The Waves Are Rising, Dear!
DR12      -0.40 dB   -13.93 dB      2:15 03-Irrlicht
DR10      -0.40 dB   -13.71 dB      7:25 04-Symptoms, Causes and Treatments
DR13      -1.79 dB   -19.58 dB      5:00 05-To Wander Towards
DR10      -0.40 dB   -14.14 dB      8:05 06-Embraced by the Earth
DR14      -0.40 dB   -17.45 dB      2:05 07-Numb, at Last
DR13      -0.40 dB   -19.82 dB      2:47 08-Water
DR9       -0.40 dB   -12.48 dB      9:19 09-Love Warrior, Part I-IV
--------------------------------------------------------------------------------

Number of tracks:  9
Official DR value: DR11

Samplerate:        96000 Hz
Channels:          2
Bits per sample:   24
Bitrate:           1393 kbps
Codec:             FLAC
================================================================================
Any questions - support@pro-jazz.com. Есть вопросы - support@pro-jazz.com
20:21
717
Нет комментариев. Ваш будет первым!