Поиск

2020 Carlos Niño & Friends - Actual Presence {Anandamide} [24-44.1]

2020 Carlos Niño & Friends - Actual Presence {Anandamide} [24-44.1]
Дата издания диска:
23 июля 2020
Носитель:
WEB
Формат:
PCM
Тип рипа:
tracks
Контейнер:
FLAC (*.flac)
Количество каналов:
2.0
Разрядность/ЧД:
24/44,1
Битрейт аудио:
lossless
Время звучания:
00:42:40
Наличие сканов:
только обложка

01. In The Moment (with Devin Daniels, Randy Gloss, Jamael Dean, and Miguel Atwood-Ferguson) (3:28)
02. Explorations 7 (with Devin Daniels, Randy Gloss, Jamael Dean, and Miguel Atwood-Ferguson) (4:08)
03. Actually (with Deantoni Parks, Jamael Dean, and Nate Mercereau) (5:54)
04. Youwillgetthroughthis, I promise (with Jamael Dean) (6:48)
05. for the Shapalaceer (with Sam Gendel and Nate Mercereau) (4:29)
06. Dreamsishappening (Instrumental) (with Jamael Dean and Sharada) (4:27)
07. Luis's Special Shells (with Jamael Dean and Jamire Williams) (2:35)
08. Jamirelandflight (with Jamire Williams, Josh Johnson, Jamael Dean, and Nate Mercereau) (3:18)
09. WaterWavesArrival (with Jesse Peterson) (3:24)
10. Mushroomeclipse (with Iasos) (4:07)

Состав:

Produced and Mixed by Carlos Niño
Mastered by Benjamin Tierney

1. Devin Daniels — Alto Saxophone, Randy Gloss — Pandeiro,
Jamael Dean — Piano and Synth, Miguel Atwood-Ferguson -
5 String Violin and Effects, Carlos Niño — Percussion and Synth

Thanks to Leroy Downs, Recordist Lee Escobar and the Staff of the excellent Just Jazz: Live Concert Series
at Mr Musichead Gallery in Hollywood, California.

 

2. Same as 1. with additional Collage, Arrangement,
Editing, and Sound Design by Carlos Niño

3. Deantoni Parks — Drums, Jamael Dean — Piano, Nate Mercereau — Guitar Synth and Electric Bass, Carlos Niño — Percussion, Arrangement, and Editing

4. Jamael Dean — Piano and Synth, Carlos Niño — Kalimba,
Percussion, Synth, Arrangement, and Editing

5. Sam Gendel — Alto Saxophone and Effects, Nate Mercereau — Guitar Synth and Electric Bass, Carlos Niño — Percussion, Arrangement, and Editing

6. Jamael Dean aka Jira >< — Beats, Synth and Production, Sharada — Vocals, Carlos Niño — Gong, Percussion and Arrangement

7. Jamael Dean — Keyboards, Jamire Williams — Drums, Carlos Niño — Luis's Special Shells and Percussion

8. Jamire Williams — Drums, Josh Johnson — Synth, Jamael Dean — Keyboards and Synth Bass, (Sharada — Voice,) Nate Mercereau — Guitar Synth, Carlos Niño — Percussion

9. Jesse Peterson — Guitar and Synth, Carlos Niño — Percussion, Synth, Soundscapes, and Arrangement

10. Iasos — Celestial Sounds, Carlos Niño — Soundscape,
Synth and Percussion

 

Лог проверки качества
foobar2000 1.6.7 / Dynamic Range Meter 1.1.1
log date: 2022-01-18 10:11:00
--------------------------------------------------------------------------------
Analyzed: Carlos Niño & Friends / Actual Presence
--------------------------------------------------------------------------------
DR         Peak         RMS     Duration Track
--------------------------------------------------------------------------------
DR12      -0.10 dB   -14.61 dB      3:28 01-In The Moment (with Devin Daniels, Randy Gloss, Jamael Dean, and Miguel Atwood-Ferguson)
DR11      -0.14 dB   -16.99 dB      4:08 02-Explorations 7 (with Devin Daniels, Randy Gloss, Jamael Dean, and Miguel Atwood-Ferguson)
DR8       -0.10 dB   -11.23 dB      5:54 03-Actually (with Deantoni Parks, Jamael Dean, and Nate Mercereau)
DR12      -0.10 dB   -16.50 dB      6:48 04-Youwillgetthroughthis, I promise (with Jamael Dean)
DR9       -1.00 dB   -12.90 dB      4:29 05-for the Shapalaceer (with Sam Gendel and Nate Mercereau)
DR8       -1.00 dB   -11.88 dB      4:27 06-Dreamsishappening (Instrumental) (with Jamael Dean and Sharada)
DR15      -1.62 dB   -21.63 dB      2:35 07-Luis's Special Shells (with Jamael Dean and Jamire Williams)
DR10      -3.85 dB   -19.29 dB      3:18 08-Jamirelandflight (with Jamire Williams, Josh Johnson, Jamael Dean, and Nate Mercereau)
DR6       -1.00 dB   -10.95 dB      3:24 09-WaterWavesArrival (with Jesse Peterson)
DR10      -2.02 dB   -16.53 dB      4:07 10-Mushroomeclipse (with Iasos)
--------------------------------------------------------------------------------
Number of tracks:  10
Official DR value: DR10
Samplerate:        44100 Hz
Channels:          2
Bits per sample:   24
Bitrate:           1349 kbps
Codec:             FLAC
================================================================================
Приватный:
Нет (DHT включён)
Размер:
467.13 Мб (489,822,378 байт) » файлов: 12
Участники:
1 раздают, 0 качают (1 участников всего)
Внешние участники:
2 раздают, 1 качают (3 участников всего) [ Обновить ]
11:10
415
Нет комментариев. Ваш будет первым!