Поиск

1958 Dakota Staton - Dynamic! (2020) {RevOla} [24-96]

1958 Dakota Staton - Dynamic! (2020) {RevOla} [24-96]
Стили:
Дата записи диска:
2 февраля, 6 февраля и 9 февраля 1958
Место записи:
Capitol Studios, New York City, NY
Дата переиздания диска:
20 июля 2020
Издатель (лейбл):
Носитель:
WEB
Формат:
PCM
Тип рипа:
tracks
Контейнер:
FLAC (*.flac)
Количество каналов:
2.0
Разрядность/ЧД:
24/96
Битрейт аудио:
lossless
Наличие сканов:
только обложка

01. Let Me Off Uptown (Remastered)  02:30
02. Night Mist (Remastered)  02:50
03. Anything Goes (Remastered)  02:28
04. When Sunny Gets Blue (Remastered)  02:51
05. They All Laughed (Remastered)  02:11
06. I Wonder (Remastered)  02:47
07. Say It Isn't So, Joe (Remastered)  02:18
08. Too Close for Comfort (Remastered)  02:23
09. Little Girl Blue (Remastered)  03:27
10. It Could Happen To You (Remastered)  02:16
11. Some Other Spring (Remastered)  02:44
12. Cherokee (Remastered)  02:35
13. Invitation (Remastered)  03:09
14. The Party's Over (Remastered)  02:25
15. The Nearness Of You (Remastered)  02:41
16. I'll Remember April (Remastered)  02:16

Состав:
  • Sid Feller     Arranger    Arranged By – Sid Feller
  • James Gavin     Liner Notes
  • Dakota Staton     Vocals
  • Patrick Roques     Reissue Art Director, Reissue Design
  • Michael Cuscuna     Reissue Producer
  • Ron McMaster     Remastering
Лог проверки качества
foobar2000 1.6.10 / Dynamic Range Meter 1.1.1
log date: 2022-10-23 22:14:11

--------------------------------------------------------------------------------
Analyzed: Dakota Staton / Dynamic!
--------------------------------------------------------------------------------

DR         Peak         RMS     Duration Track
--------------------------------------------------------------------------------
DR10      -0.21 dB   -13.10 dB      2:31 01-Let Me Off Uptown (Remastered)
DR12       0.00 dB   -14.89 dB      2:51 02-Night Mist (Remastered)
DR11       0.00 dB   -12.82 dB      2:29 03-Anything Goes (Remastered)
DR11       0.00 dB   -14.81 dB      2:51 04-When Sunny Gets Blue (Remastered)
DR9       -0.25 dB   -12.34 dB      2:11 05-They All Laughed (Remastered)
DR9        0.00 dB   -12.85 dB      2:48 06-I Wonder (Remastered)
DR11       0.00 dB   -13.89 dB      2:18 07-Say It Isn't So, Joe (Remastered)
DR8        0.00 dB   -12.11 dB      2:23 08-Too Close for Comfort (Remastered)
DR11      -0.78 dB   -14.79 dB      3:28 09-Little Girl Blue (Remastered)
DR9        0.00 dB   -12.43 dB      2:16 10-It Could Happen To You (Remastered)
DR12       0.00 dB   -15.25 dB      2:45 11-Some Other Spring (Remastered)
DR9       -0.49 dB   -13.09 dB      2:35 12-Cherokee (Remastered)
DR10       0.00 dB   -14.50 dB      3:10 13-Invitation (Remastered)
DR11       0.00 dB   -13.30 dB      2:26 14-The Party's Over (Remastered)
DR11      -0.24 dB   -15.17 dB      2:42 15-The Nearness Of You (Remastered)
DR9        0.00 dB   -12.31 dB      2:16 16-I'll Remember April (Remastered)
--------------------------------------------------------------------------------

Number of tracks:  16
Official DR value: DR10

Samplerate:        96000 Hz
Channels:          2
Bits per sample:   24
Bitrate:           2754 kbps
Codec:             FLAC
================================================================================
22:22
412
Нет комментариев. Ваш будет первым!