Поиск

2020 Brandi Disterheft with George Coleman - Surfboard {Justin Time} [24-96]

2020 Brandi Disterheft with George Coleman - Surfboard {Justin Time} [24-96]
Дата издания диска:
30 октября 2020
Носитель:
WEB
Формат:
PCM
Тип рипа:
tracks
Контейнер:
FLAC (*.flac)
Количество каналов:
2.0
Разрядность/ЧД:
24/96
Битрейт аудио:
lossless
Время звучания:
01:04:16
Наличие сканов:
только обложка

Треклист:

01 - Surfboard (04:03)
02 - Prelude to Coup de Foudre (02:57)
03 - Coup de Foudre (03:51)
04 - My Foolish Heart (06:50)
05 - Nana (04:31)
06 - Manhattan Moon (03:51)
07 - The Pendulum at Falcon's Lair (03:36)
08 - On Broadway (04:42)
09 - Speak Low (05:20)
10 - One Dream (05:24)
11 - Portrait of Porto (05:05)
12 - Where or When (03:41)
13 - Del Sasser (05:43)
14 - Reveries (04:37)

Состав:
  • Bass, Cello, Vocals – Brandi Disterheft
  • Drums – Portinho
  • Piano – Klaus Mueller
  • Tenor Saxophone – George Coleman
Лог проверки качества
foobar2000 1.4.2 / Dynamic Range Meter 1.1.1
log date: 2021-08-01 13:25:55
--------------------------------------------------------------------------------
Analyzed: Brandi Disterheft & George Coleman / Surfboard
--------------------------------------------------------------------------------
DR         Peak         RMS     Duration Track
--------------------------------------------------------------------------------
DR8        0.00 dB    -9.78 dB      4:03 01-Surfboard
DR14      -0.37 dB   -18.03 dB      2:58 02-Prelude to Coup de Foudre
DR7        0.00 dB    -8.32 dB      3:51 03-Coup de Foudre
DR9        0.00 dB   -11.58 dB      6:50 04-My Foolish Heart
DR8        0.00 dB    -9.98 dB      4:31 05-NanГЈ
DR11       0.00 dB   -12.34 dB      3:51 06-Manhattan Moon
DR8        0.00 dB    -9.61 dB      3:37 07-The Pendulum at Falcon's Lair
DR11       0.00 dB   -12.52 dB      4:42 08-On Broadway
DR8        0.00 dB    -9.26 dB      5:20 09-Speak Low
DR10       0.00 dB   -12.26 dB      5:24 10-One Dream
DR9        0.00 dB   -10.43 dB      5:05 11-Portrait of Porto
DR10       0.00 dB   -11.66 dB      3:42 12-Where or When
DR8        0.00 dB    -9.64 dB      5:44 13-Del Sasser
DR11       0.00 dB   -13.44 dB      4:37 14-Reveries
--------------------------------------------------------------------------------
Number of tracks:  14
Official DR value: DR9
Samplerate:        96000 Hz
Channels:          2
Bits per sample:   24
Bitrate:           2656 kbps
Codec:             FLAC
================================================================================
По всем вопросам пишите личное сообщение пользователю M0p94ok.
18:17
193
Нет комментариев. Ваш будет первым!