Поиск

1967 Anthony Ortega - New Dance! (2015) {International Phonograph} [DSD128]

1967 Anthony Ortega - New Dance! (2015) {International Phonograph} [DSD128]
Стили:
Дата записи диска:
15 октября 1966, 14 января 1967
Место записи:
Revelation's Mt. Washington Studio, Los Angeles, USA
Носитель:
WEB
Формат:
DSD
Тип рипа:
tracks
Контейнер:
DSF (*.dsf)
Количество каналов:
2.0
Разрядность/ЧД:
128 (5,6 MHz/1 Bit)
Битрейт аудио:
lossless
Время звучания:
00:31:44
Наличие сканов:
только обложка
Треклист:

01. The Shadow of Your Smile
02. Sentimentalize
03. New Dance!

Состав:
  • Alto Saxophone – Anthony Ortega
  • Double Bass – Chuck Domanico (tracks: 1 to 2)
  • Bobby West (track: 3)
  • Drums – Bill Goodwin (track: 3)
Лог проверки качества
foobar2000 1.6.5 / Замер динамического диапазона (DR) 1.1.1
Дата отчёта:  2021-08-01 16:08:57
--------------------------------------------------------------------------------
Анализ:   Anthony Ortega, alto saxophone - Chuck Domanico, bass / New Dance! (1-2)
          Anthony Ortega, alto saxophone - Bobby West, bass - Bill Goodwin, drums / New Dance! (3)
--------------------------------------------------------------------------------
DR         Пики         RMS           Продолжительность трека
--------------------------------------------------------------------------------
DR14      -5.72 дБ   -24.45 дБ     10:24 01-The Shadow of Your Smile
DR14      -4.86 дБ   -23.11 дБ     11:37 02-Sentimentalize
DR13      -6.72 дБ   -23.90 дБ      9:43 03-New Dance!
--------------------------------------------------------------------------------
Количество треков: 3
Реальные значения DR: DR14
Частота:   5644800 Гц / Частота PCM: 176400 Гц
Каналов:   2
Разрядность:   1
Битрейт:   11290 кбит/с
Кодек:   DSD128
================================================================================
По всем вопросам пишите личное сообщение пользователю M0p94ok.
22:02
190
Нет комментариев. Ваш будет первым!