Вы используете незарегистрированную версию компонента "Вкладки"!

Поиск

2020 Ben Goldberg - Symphony No. 9 {BAG Production} [24-48]

2020 Ben Goldberg - Symphony No. 9 {BAG Production} [24-48]
Стили:
Битрейт аудио:
lossless
Доп. инфо:

• Формат записи | Источник записи: [TR24][OF]
• Наличие водяных знаков: Нет
• Год издания релиза: 2020
• Лейбл: BAG Production
• Продолжительность: 00:47:02
• Источник: internet
• WEB релиз: ссылка
• Контейнер: FLAC (*.flac)
• Тип рипа: tracks
• Разрядность: 24/48
• Формат: PCM
• Количество каналов: 2.0
• Наличие сканов: front

Лог проверки качества
foobar2000 1.4.2 / Замер динамического диапазона (DR) 1.1.1
Дата отчёта:  2020-03-14 19:28:24

--------------------------------------------------------------------------------
Анализ:   Ben Goldberg featuring Chris Speed, Hamir Atwal, Kasey Knudsen, Andrew Conklin & Rob Adkins / Symphony No. 9
--------------------------------------------------------------------------------

DR         Пики         RMS           Продолжительность трека
--------------------------------------------------------------------------------
DR11      -0.40 дБ   -12.86 дБ      3:30 01-Introduction
DR11      -0.40 дБ   -13.59 дБ      4:27 02-Second Interlude, Pt. 1
DR10      -0.40 дБ   -12.07 дБ      3:39 03-Determinate / Indeterminate
DR10      -0.40 дБ   -12.43 дБ      6:30 04-Second Interlude, Pt. 2
DR11      -0.40 дБ   -14.33 дБ      4:18 05-Twelve Eight
DR11      -0.40 дБ   -13.65 дБ      6:17 06-What Good Am I
DR10      -5.79 дБ   -19.09 дБ      0:38 07-Una Corda
DR8       -1.83 дБ   -11.89 дБ      1:22 08-Quizzical, Pt. 1
DR11      -0.40 дБ   -13.17 дБ      4:18 09-Quizzical, Pt. 2
DR10      -0.10 дБ   -11.89 дБ      4:09 10-Reintroduction
DR9       -1.79 дБ   -14.35 дБ      0:31 11-Hamir Plays the Drums
DR9       -1.08 дБ   -12.09 дБ      1:29 12-Inevitable, Pt. 1
DR9       -0.40 дБ   -12.01 дБ      5:53 13-Inevitable, Pt. 2
--------------------------------------------------------------------------------

Количество треков: 13
Реальные значения DR: DR10

Частота:   48000 Гц
Каналов:   2
Разрядность:   24
Битрейт:   1616 кбит/с
Кодек:   FLAC
================================================================================
Any questions - support@pro-jazz.com. Есть вопросы - support@pro-jazz.com
07:53
275
Нет комментариев. Ваш будет первым!