Вы используете незарегистрированную версию компонента "Вкладки"!

Поиск

2017 Rogério Caetano - Rogério Caetano Convida Ao Vivo {Biscoito Fino} [24-96]

2017 Rogério Caetano - Rogério Caetano Convida Ao Vivo {Biscoito Fino} [24-96]
Носитель:
WEB
Формат:
PCM
Тип рипа:
tracks+.cue
Контейнер:
FLAC (*.flac)
Количество каналов:
2.0
Разрядность/ЧД:
24/96
Битрейт аудио:
lossless
Время звучания:
01:00:26
Наличие сканов:
web
Релизёр (источник):
M0p94ok
Лог проверки качества
foobar2000 1.3.16 / Dynamic Range Meter 1.1.1
log date: 2018-12-24 02:03:28

--------------------------------------------------------------------------------
Analyzed: Rogério Caetano, Bebê Kramer / Rogério Caetano Convida Ao Vivo (1-2)
          Rogério Caetano, Cristovao Bastos / Rogério Caetano Convida Ao Vivo (3-4)
          Rogério Caetano, Eduardo Neves / Rogério Caetano Convida Ao Vivo (5-6)
          Rogério Caetano, Hamilton De Holanda / Rogério Caetano Convida Ao Vivo (7-8)
          Rogério Caetano, Marco Pereira / Rogério Caetano Convida Ao Vivo (9-10)
          Rogério Caetano, Yamandú Costa / Rogério Caetano Convida Ao Vivo (11-12)
          Rogério Caetano, Zé da Velha, Silvério Ponte / Rogério Caetano Convida Ao Vivo (13-14)
--------------------------------------------------------------------------------

DR         Peak         RMS     Duration Track
--------------------------------------------------------------------------------
DR8       -0.50 dB   -11.53 dB      4:42 07-Milonga Gris (Ao Vivo)
DR7       -0.34 dB   -10.07 dB      4:36 08-Caminhando (Ao Vivo)
DR9       -0.79 dB   -12.11 dB      3:56 13-Choro Saudoso (Ao Vivo)
DR7       -0.48 dB   -10.30 dB      3:24 14-Forró das Palmas (Ao Vivo)
DR9       -0.66 dB   -11.36 dB      3:57 11-E Vai Que É Gostoso (Ao Vivo)
DR9       -0.36 dB   -11.13 dB      2:10 12-Valsa D' Yamandu (Ao Vivo)
DR9       -0.74 dB   -11.31 dB      2:44 03-Capricho de Luperce (Ao Vivo)
DR9        0.00 dB   -10.98 dB      8:01 04-Criançada Reunida (Ao Vivo)
DR8       -0.46 dB   -11.12 dB      6:08 09-Samba Pro Marcão (Ao Vivo)
DR8       -0.34 dB   -10.96 dB      5:13 10-Uma Valsa para Rosa (Ao Vivo)
DR9       -0.38 dB   -11.77 dB      2:32 01-Choro Bagual (Ao Vivo)
DR9       -0.22 dB   -12.60 dB      4:05 02-Frevinho (Ao Vivo)
DR9       -0.79 dB   -12.50 dB      5:20 05-Ingênuo (Ao Vivo)
DR11      -0.37 dB   -13.59 dB      3:37 06-Nova Ilusão (Ao Vivo)
--------------------------------------------------------------------------------

Number of tracks:  14
Official DR value: DR9

Samplerate:        96000 Hz
Channels:          2
Bits per sample:   24
Bitrate:           2692 kbps
Codec:             FLAC
================================================================================
Any questions - support@pro-jazz.com. Есть вопросы - support@pro-jazz.com
17:19
253
Нет комментариев. Ваш будет первым!