Вы используете незарегистрированную версию компонента "Вкладки"!

Поиск

2020 Anne Bisson - Keys To My Heart {Camilio} [24-44,1]

2020 Anne Bisson - Keys To My Heart {Camilio} [24-44,1]
Стили:
Битрейт аудио:
lossless
Доп. инфо:

Формат записи/Источник записи: [TR24][OF]
Наличие водяных знаков: Нет
Год издания/переиздания диска: 2020
Издатель (лейбл): Camilio Records
Продолжительность: 51:24
Наличие сканов в содержимом раздачи: Буклет PDF
Источник (релизер): Qobuz

Контейнер: FLAC (*.flac)
Тип рипа: tracks
Разрядность: 24/44,1
Формат: PCM
Количество каналов: 2.0

Лог проверки качества
foobar2000 1.3.7 / Dynamic Range Meter 1.1.1
log date: 2020-03-20 01:11:07

--------------------------------------------------------------------------------
Analyzed: Anne Bisson, Darek Oleskiewicz, Joe LaBarbera / Keys to My Heart (1-8)
          Anne Bisson / Keys to My Heart (9-15)
--------------------------------------------------------------------------------

DR         Peak         RMS     Duration Track
--------------------------------------------------------------------------------
DR13      -0.50 dB   -16.89 dB      2:47 01-Killing Me Softly
DR11      -0.50 dB   -15.70 dB      3:49 02-Icarus
DR13      -0.50 dB   -15.21 dB      2:43 04-No Problem
DR10      -0.50 dB   -12.36 dB      3:21 05-Where Am I Now?
DR12      -0.50 dB   -16.81 dB      3:20 07-Hunger in Your Heart
DR13      -0.50 dB   -15.40 dB      3:14 08-Slip into My Limousine
DR12      -0.50 dB   -15.96 dB      5:06 11-For me, formidable
DR12      -0.50 dB   -16.17 dB      3:39 12-For me, formidable  (Radio Edit)
DR12      -3.17 dB   -18.45 dB      2:38 03-In a Whisper
DR13      -1.15 dB   -19.10 dB      3:33 06-Hour of the Wolf
DR13      -1.53 dB   -18.41 dB      3:28 09-Climbing in the Clouds
DR13      -0.83 dB   -19.33 dB      3:12 10-I'm Sorry (J'ai D'la Peine)
DR15      -0.90 dB   -21.83 dB      5:08 13-Awakening
DR12      -2.01 dB   -19.73 dB      2:04 14-Struggling
DR13      -1.96 dB   -20.76 dB      3:22 15-Inner Peace
--------------------------------------------------------------------------------

Number of tracks:  15
Official DR value: DR12

Samplerate:        44100 Hz
Channels:          2
Bits per sample:   24
Bitrate:           1098 kbps
Codec:             FLAC
================================================================================
Any questions - support@pro-jazz.com. Есть вопросы - support@pro-jazz.com
07:19
288
Нет комментариев. Ваш будет первым!