Вы используете незарегистрированную версию компонента "Вкладки"!

Поиск

1964 Louis Armstrong - Ain't Gonna Give Nobody None of My Jelly Roll (2019) {Audio Fidelity} [24-96]

1964 Louis Armstrong - Ain't Gonna Give Nobody None of My Jelly Roll (2019) {Audio Fidelity} [24-96]
Стили:
Издатель (лейбл):
Битрейт аудио:
lossless
Доп. инфо:

Формат записи/Источник записи: [TR24][OF]
Издание: Remastered
Год издания/переиздания диска: 1964/2019
Продолжительность: 00:44:29
Наличие сканов в содержимом раздачи: Нет

Контейнер: FLAC (*.flac)
Тип рипа: tracks
Разрядность: 24/96
Количество каналов: 2.0

Источник (релизер): Qobuz

Лог проверки качества
foobar2000 1.4.3 / Dynamic Range Meter 1.1.1
log date: 2020-04-30 11:06:42

--------------------------------------------------------------------------------
Analyzed: Louis Armstrong / Ain't Gonna Give Nobody None of My Jelly Roll
--------------------------------------------------------------------------------

DR         Peak         RMS     Duration Track
--------------------------------------------------------------------------------
DR13      -1.25 dB   -16.55 dB      3:59 01, 01-Ain't Gonna Give Nobody None of My Jelly Roll
DR12      -1.42 dB   -17.25 dB      4:02 02, 02-Frankie & Johnny
DR12      -1.25 dB   -16.37 dB      2:50 03, 03-Drop That Sack
DR12      -1.25 dB   -16.66 dB      2:49 04, 04-Jelly Roll Blues
DR12      -1.24 dB   -15.99 dB      4:33 05, 05-Old Kentucky Home
DR12      -1.25 dB   -16.02 dB      3:23 06, 06-Chimes Blues
DR11      -1.24 dB   -15.25 dB      4:58 07, 07-St. James Infirmary
DR11      -1.24 dB   -14.80 dB      3:44 08, 08-I Want a Big Butter & Egg Man
DR11      -1.24 dB   -14.71 dB      3:59 09, 09-I Ain't Got Nobody
DR12      -1.25 dB   -15.60 dB      4:05 10, 10-Panama
DR12      -1.25 dB   -15.11 dB      2:38 11, 11-Dr. Jazz
DR9       -1.24 dB   -12.25 dB      3:35 12, 12-Hot Time in the Old Town Tonight
--------------------------------------------------------------------------------

Number of tracks:  12
Official DR value: DR12

Samplerate:        96000 Hz
Channels:          2
Bits per sample:   24
Bitrate:           2738 kbps
Codec:             FLAC
================================================================================
Any questions - support@pro-jazz.com. Есть вопросы - support@pro-jazz.com
07:38
275
Нет комментариев. Ваш будет первым!