Вы используете незарегистрированную версию компонента "Вкладки"!

Поиск

2020 Allison Neale - Quietly There {Ubuntu Music} [24-96]

2020 Allison Neale - Quietly There {Ubuntu Music} [24-96]
Стили:
Битрейт аудио:
lossless
Доп. инфо:

Формат записи/Источник записи: [TR24][OF]
Наличие водяных знаков: Нет
Год издания: 2020
Издатель (лейбл): Ubuntu Music
Продолжительность: 01:02:06
Наличие сканов в содержимом раздачи: Только обложка альбома
Контейнер: FLAC (*.flac)
Тип рипа: tracks
Разрядность: 24/96
Формат: PCM
Количество каналов: 2.0
Источник (релизер): highresaudio.com

Лог проверки качества
foobar2000 1.4.8 / Dynamic Range Meter 1.1.1
log date: 2020-09-12 07:27:31

--------------------------------------------------------------------------------
Analyzed: Allison Neale / Quietly There
--------------------------------------------------------------------------------

DR         Peak         RMS     Duration Track
--------------------------------------------------------------------------------
DR12      -0.40 dB   -13.69 dB      5:58 01-Darn That Dream
DR12      -0.46 dB   -15.23 dB      6:40 02-Midnight Sun
DR12      -0.44 dB   -14.17 dB      5:35 03-Split Kick
DR12      -0.44 dB   -13.93 dB      5:43 04-Quietly There
DR12      -0.45 dB   -14.89 dB      7:18 05-I'm Glad There is You
DR11      -0.41 dB   -12.88 dB      4:57 06-Motion
DR11      -0.42 dB   -12.99 dB      6:09 07-Spring is Here
DR11      -0.46 dB   -13.49 dB      5:27 08-Lollipops And Roses
DR11      -0.39 dB   -13.15 dB      5:47 09-2 Degrees East 3 Degrees West
DR10      -0.39 dB   -12.43 dB      4:24 10-You Do Something to Me
DR11      -0.57 dB   -14.93 dB      4:15 11-I Should Care
--------------------------------------------------------------------------------

Number of tracks:  11
Official DR value: DR11
Samplerate:        96000 Hz
Channels:          2
Bits per sample:   24
Bitrate:           2518 kbps
Codec:             FLAC
================================================================================
Any questions - support@pro-jazz.com. Есть вопросы - support@pro-jazz.com
00:26
217
Нет комментариев. Ваш будет первым!