Вы используете незарегистрированную версию компонента "Вкладки"!

Поиск

2000 Baden Powell - Live in Berlin (2015) {MPS Classical} [24-48]

2000 Baden Powell - Live in Berlin (2015) {MPS Classical} [24-48]
Место записи:
Volksbühne am Rosa-Luxemburg-Platz
Битрейт аудио:
lossless
Доп. инфо:

Формат записи/Источник записи: [TR24][OF]
Год издания/переиздания диска: 2000/2015
Издатель (лейбл): MPS Classical
Продолжительность: 01:43:56
Наличие сканов в содержимом раздачи: Нет

Контейнер: FLAC (*.flac)
Тип рипа: tracks
Разрядность: 24/48
Количество каналов: 2.0

Источник (релизер): HIGHRESAUDIO

Лог проверки качества
foobar2000 1.4.3 / Dynamic Range Meter 1.1.1
log date: 2020-08-06 17:36:03

--------------------------------------------------------------------------------
Analyzed: Baden Powell / Live in Berlin
--------------------------------------------------------------------------------

DR         Peak         RMS     Duration Track
--------------------------------------------------------------------------------
DR14      -0.23 dB   -17.54 dB      7:25 01-Vento Vadio (Live)
DR12      -0.23 dB   -15.91 dB      6:00 02-Samba do Aviao (Live)
DR17      -0.23 dB   -20.38 dB      7:49 03-Naquele Tempo (Live)
DR14      -0.23 dB   -17.76 dB      7:20 04-Abaete (Live)
DR14      -0.23 dB   -18.11 dB      4:48 05-Manha de Carnaval (Live)
DR12      -0.23 dB   -16.12 dB      7:39 06-Samba Triste (Live)
DR13      -0.23 dB   -16.01 dB      3:19 07-Garota de Ipanema (Live)
DR13      -0.23 dB   -17.87 dB     11:26 08-Asa Branca (Live)
DR13      -0.23 dB   -15.89 dB      3:22 09-Chega de Saudade (Live)
DR13      -0.23 dB   -15.24 dB      3:12 10-Bolinha de Papel (Live) / Primera Vez [Live]
DR14      -0.23 dB   -18.49 dB      3:45 11-Samba em Preludio (Live)
DR15      -0.23 dB   -19.49 dB      7:15 12-Tocata (Live)
DR11      -0.23 dB   -14.97 dB      9:05 13-Berimbau (Live)
DR13      -0.23 dB   -16.06 dB     11:57 14-Samba da Bencao (Live)
DR12      -0.23 dB   -15.50 dB      4:49 15-Nega do Cabelo Duro (Live) / Samba da Minha Terra [Live]
DR15      -0.23 dB   -18.58 dB      4:45 16-Marcha Escosesa (Live)
--------------------------------------------------------------------------------

Number of tracks:  16
Official DR value: DR14

Samplerate:        48000 Hz
Channels:          2
Bits per sample:   24
Bitrate:           1565 kbps
Codec:             FLAC
================================================================================
Any questions - support@pro-jazz.com. Есть вопросы - support@pro-jazz.com
11:02
198
Нет комментариев. Ваш будет первым!