Поиск

2019 Vangelis - Nocturne - The Piano Album {Decca 7702214} [CD]

2019 Vangelis - Nocturne - The Piano Album {Decca 7702214} [CD]
Битрейт аудио:
lossless

Треклист:

01 - Nocturnal Promenade (00:05:51)
02 - To The Unknown Man (00:05:15)
03 - Movement 9, Mythodea (00:03:49)
04 - Moonlight Reflections (00:03:11)
05 - Through The Night Mist (00:05:13)
06 - Early Years (00:03:33)
07 - Love Theme, Blade Runner (00:06:05)
08 - Sweet Nostalgia (00:03:39)
09 - Intermezzo (00:03:46)
10 - To A Friend (00:05:23)
11 - La Petite Fille De La Mer (00:04:45)
12 - Longing (00:03:45)
13 - Chariots Of Fire (00:05:27)
14 - Unfulfilled Desire (00:04:24)
15 - Lonesome (00:05:51)
16 - 1492 Conquest Of Paradise (00:04:52)
17 - Pour Melia (00:01:12)

Жанр: New Age
Носитель: CD
Страна-производитель диска (релиза): UK
Год издания: 2019
Издатель (лейбл): Decca
Номер по каталогу: 7702214
Страна исполнителя (группы): Greece
Аудиокодек: FLAC (*.flac)
Тип рипа: tracks+.cue
Продолжительность: 01:16:00
Источник: Naftamusic
Наличие сканов в содержимом раздачи: да

Лог создания рипа
Exact Audio Copy V1.3 from 2. September 2016

EAC extraction logfile from 30. January 2019, 21:26

Vangelis / Nocturne (The Piano Album)

Used drive  : PLEXTOR PX-891SAF PLUS   Adapter: 1  ID: 0

Read mode               : Secure
Utilize accurate stream : Yes
Defeat audio cache      : Yes
Make use of C2 pointers : No

Read offset correction                      : 6
Overread into Lead-In and Lead-Out          : No
Fill up missing offset samples with silence : Yes
Delete leading and trailing silent blocks   : No
Null samples used in CRC calculations       : Yes
Used interface                              : Native Win32 interface for Win NT & 2000
Gap handling                                : Appended to previous track

Used output format              : User Defined Encoder
Selected bitrate                : 1024 kBit/s
Quality                         : High
Add ID3 tag                     : No
Command line compressor         : C:\Program Files (x86)\Exact Audio Copy\Flac\flac.exe
Additional command line options : -0 -V -T "ARTIST=%artist%" -T "TITLE=%title%" -T "ALBUM=%albumtitle%" -T "DATE=%year%" -T "TRACKNUMBER=%tracknr%" -T "TOTALTRACKS=%numtracks%" -T "GENRE=%genre%" -T "COMMENT=Naftamusic Release!" %source%

TOC of the extracted CD

     Track |   Start  |  Length  | Start sector | End sector
    ---------------------------------------------------------
        1  |  0:00.00 |  5:51.09 |         0    |    26333
        2  |  5:51.09 |  5:14.41 |     26334    |    49924
        3  | 11:05.50 |  3:48.68 |     49925    |    67092
        4  | 14:54.43 |  3:10.72 |     67093    |    81414
        5  | 18:05.40 |  5:12.62 |     81415    |   104876
        6  | 23:18.27 |  3:32.50 |    104877    |   120826
        7  | 26:51.02 |  6:05.06 |    120827    |   148207
        8  | 32:56.08 |  3:38.45 |    148208    |   164602
        9  | 36:34.53 |  3:45.67 |    164603    |   181544
       10  | 40:20.45 |  5:23.35 |    181545    |   205804
       11  | 45:44.05 |  4:45.08 |    205805    |   227187
       12  | 50:29.13 |  3:45.27 |    227188    |   244089
       13  | 54:14.40 |  5:26.49 |    244090    |   268588
       14  | 59:41.14 |  4:24.14 |    268589    |   288402
       15  | 64:05.28 |  5:50.49 |    288403    |   314701
       16  | 69:56.02 |  4:51.74 |    314702    |   336600
       17  | 74:48.01 |  1:11.51 |    336601    |   341976

Track  1

     Filename E:\Nafta Releases\Vangelis - Nocturne (The Piano Album 2019)[FLAC] - Naftamusic\01 - Nocturnal Promenade.wav

     Pre-gap length  0:00:02.00

     Peak level 99.5 %
     Extraction speed 3.2 X
     Track quality 100.0 %
     Test CRC 6DEF315C
     Copy CRC 6DEF315C
     Track not present in AccurateRip database
     Copy OK

Track  2

     Filename E:\Nafta Releases\Vangelis - Nocturne (The Piano Album 2019)[FLAC] - Naftamusic\02 - To The Unknown Man.wav

     Peak level 99.5 %
     Extraction speed 3.6 X
     Track quality 100.0 %
     Test CRC 51832DB3
     Copy CRC 51832DB3
     Track not present in AccurateRip database
     Copy OK

Track  3

     Filename E:\Nafta Releases\Vangelis - Nocturne (The Piano Album 2019)[FLAC] - Naftamusic\03 - Movement 9, Mythodea.wav

     Peak level 99.5 %
     Extraction speed 3.7 X
     Track quality 100.0 %
     Test CRC A6C965B7
     Copy CRC A6C965B7
     Track not present in AccurateRip database
     Copy OK

Track  4

     Filename E:\Nafta Releases\Vangelis - Nocturne (The Piano Album 2019)[FLAC] - Naftamusic\04 - Moonlight Reflections.wav

     Peak level 99.4 %
     Extraction speed 3.8 X
     Track quality 100.0 %
     Test CRC FC59A889
     Copy CRC FC59A889
     Track not present in AccurateRip database
     Copy OK

Track  5

     Filename E:\Nafta Releases\Vangelis - Nocturne (The Piano Album 2019)[FLAC] - Naftamusic\05 - Through The Night Mist.wav

     Peak level 99.6 %
     Extraction speed 4.3 X
     Track quality 100.0 %
     Test CRC EB62887B
     Copy CRC EB62887B
     Track not present in AccurateRip database
     Copy OK

Track  6

     Filename E:\Nafta Releases\Vangelis - Nocturne (The Piano Album 2019)[FLAC] - Naftamusic\06 - Early Years.wav

     Peak level 99.5 %
     Extraction speed 4.3 X
     Track quality 100.0 %
     Test CRC DCDE8528
     Copy CRC DCDE8528
     Track not present in AccurateRip database
     Copy OK

Track  7

     Filename E:\Nafta Releases\Vangelis - Nocturne (The Piano Album 2019)[FLAC] - Naftamusic\07 - Love Theme, Blade Runner.wav

     Peak level 95.7 %
     Extraction speed 4.9 X
     Track quality 100.0 %
     Test CRC CCF5BA3E
     Copy CRC CCF5BA3E
     Track not present in AccurateRip database
     Copy OK

Track  8

     Filename E:\Nafta Releases\Vangelis - Nocturne (The Piano Album 2019)[FLAC] - Naftamusic\08 - Sweet Nostalgia.wav

     Peak level 99.5 %
     Extraction speed 4.8 X
     Track quality 100.0 %
     Test CRC C04D0D5F
     Copy CRC C04D0D5F
     Track not present in AccurateRip database
     Copy OK

Track  9

     Filename E:\Nafta Releases\Vangelis - Nocturne (The Piano Album 2019)[FLAC] - Naftamusic\09 - Intermezzo.wav

     Peak level 98.9 %
     Extraction speed 5.0 X
     Track quality 100.0 %
     Test CRC 37F12654
     Copy CRC 37F12654
     Track not present in AccurateRip database
     Copy OK

Track 10

     Filename E:\Nafta Releases\Vangelis - Nocturne (The Piano Album 2019)[FLAC] - Naftamusic\10 - To A Friend.wav

     Peak level 79.2 %
     Extraction speed 5.4 X
     Track quality 100.0 %
     Test CRC F78AE4F0
     Copy CRC F78AE4F0
     Track not present in AccurateRip database
     Copy OK

Track 11

     Filename E:\Nafta Releases\Vangelis - Nocturne (The Piano Album 2019)[FLAC] - Naftamusic\11 - La Petite Fille De La Mer.wav

     Peak level 99.5 %
     Extraction speed 5.5 X
     Track quality 100.0 %
     Test CRC 2B5013F4
     Copy CRC 2B5013F4
     Track not present in AccurateRip database
     Copy OK

Track 12

     Filename E:\Nafta Releases\Vangelis - Nocturne (The Piano Album 2019)[FLAC] - Naftamusic\12 - Longing.wav

     Peak level 91.6 %
     Extraction speed 5.5 X
     Track quality 100.0 %
     Test CRC FC239C94
     Copy CRC FC239C94
     Track not present in AccurateRip database
     Copy OK

Track 13

     Filename E:\Nafta Releases\Vangelis - Nocturne (The Piano Album 2019)[FLAC] - Naftamusic\13 - Chariots Of Fire.wav

     Peak level 99.5 %
     Extraction speed 5.0 X
     Track quality 99.9 %
     Test CRC EE71E2AA
     Copy CRC EE71E2AA
     Track not present in AccurateRip database
     Copy OK

Track 14

     Filename E:\Nafta Releases\Vangelis - Nocturne (The Piano Album 2019)[FLAC] - Naftamusic\14 - Unfulfilled Desire.wav

     Peak level 99.4 %
     Extraction speed 6.0 X
     Track quality 100.0 %
     Test CRC D38F73F1
     Copy CRC D38F73F1
     Track not present in AccurateRip database
     Copy OK

Track 15

     Filename E:\Nafta Releases\Vangelis - Nocturne (The Piano Album 2019)[FLAC] - Naftamusic\15 - Lonesome.wav

     Peak level 99.5 %
     Extraction speed 6.4 X
     Track quality 100.0 %
     Test CRC 6A7DC889
     Copy CRC 6A7DC889
     Track not present in AccurateRip database
     Copy OK

Track 16

     Filename E:\Nafta Releases\Vangelis - Nocturne (The Piano Album 2019)[FLAC] - Naftamusic\16 - 1492 Conquest Of Paradise.wav

     Peak level 99.4 %
     Extraction speed 6.5 X
     Track quality 100.0 %
     Test CRC 4AD7A4A5
     Copy CRC 4AD7A4A5
     Track not present in AccurateRip database
     Copy OK

Track 17

     Filename E:\Nafta Releases\Vangelis - Nocturne (The Piano Album 2019)[FLAC] - Naftamusic\17 - Pour Melia.wav

     Peak level 47.1 %
     Extraction speed 4.8 X
     Track quality 100.0 %
     Test CRC A1D4C3E8
     Copy CRC A1D4C3E8
     Track not present in AccurateRip database
     Copy OK

None of the tracks are present in the AccurateRip database

No errors occurred

End of status report

==== Log checksum ADD67DB24EFA4E69D674E8ACEFF0328196032D16145F7AEEEFFA02F4F267034C ====
Содержание индексной карты (.CUE)
REM GENRE "Electronic, Classical"
REM DATE 2019
REM DISCID 0711CF11
REM COMMENT "ExactAudioCopy v1.3"
PERFORMER "Vangelis"
TITLE "Nocturne (The Piano Album)"
REM COMPOSER ""
FILE "01 - Nocturnal Promenade.wav" WAVE
  TRACK 01 AUDIO
    TITLE "Nocturnal Promenade"
    PERFORMER "Vangelis"
    REM COMPOSER ""
    INDEX 01 00:00:00
FILE "02 - To The Unknown Man.wav" WAVE
  TRACK 02 AUDIO
    TITLE "To The Unknown Man"
    PERFORMER "Vangelis"
    REM COMPOSER ""
    INDEX 01 00:00:00
FILE "03 - Movement 9, Mythodea.wav" WAVE
  TRACK 03 AUDIO
    TITLE "Movement 9, Mythodea"
    PERFORMER "Vangelis"
    REM COMPOSER ""
    INDEX 01 00:00:00
FILE "04 - Moonlight Reflections.wav" WAVE
  TRACK 04 AUDIO
    TITLE "Moonlight Reflections"
    PERFORMER "Vangelis"
    REM COMPOSER ""
    INDEX 01 00:00:00
FILE "05 - Through The Night Mist.wav" WAVE
  TRACK 05 AUDIO
    TITLE "Through The Night Mist"
    PERFORMER "Vangelis"
    REM COMPOSER ""
    INDEX 01 00:00:00
FILE "06 - Early Years.wav" WAVE
  TRACK 06 AUDIO
    TITLE "Early Years"
    PERFORMER "Vangelis"
    REM COMPOSER ""
    INDEX 01 00:00:00
FILE "07 - Love Theme, Blade Runner.wav" WAVE
  TRACK 07 AUDIO
    TITLE "Love Theme, Blade Runner"
    PERFORMER "Vangelis"
    REM COMPOSER ""
    INDEX 01 00:00:00
FILE "08 - Sweet Nostalgia.wav" WAVE
  TRACK 08 AUDIO
    TITLE "Sweet Nostalgia"
    PERFORMER "Vangelis"
    REM COMPOSER ""
    INDEX 01 00:00:00
FILE "09 - Intermezzo.wav" WAVE
  TRACK 09 AUDIO
    TITLE "Intermezzo"
    PERFORMER "Vangelis"
    REM COMPOSER ""
    INDEX 01 00:00:00
FILE "10 - To A Friend.wav" WAVE
  TRACK 10 AUDIO
    TITLE "To A Friend"
    PERFORMER "Vangelis"
    REM COMPOSER ""
    INDEX 01 00:00:00
FILE "11 - La Petite Fille De La Mer.wav" WAVE
  TRACK 11 AUDIO
    TITLE "La Petite Fille De La Mer"
    PERFORMER "Vangelis"
    REM COMPOSER ""
    INDEX 01 00:00:00
FILE "12 - Longing.wav" WAVE
  TRACK 12 AUDIO
    TITLE "Longing"
    PERFORMER "Vangelis"
    REM COMPOSER ""
    INDEX 01 00:00:00
FILE "13 - Chariots Of Fire.wav" WAVE
  TRACK 13 AUDIO
    TITLE "Chariots Of Fire"
    PERFORMER "Vangelis"
    REM COMPOSER ""
    INDEX 01 00:00:00
FILE "14 - Unfulfilled Desire.wav" WAVE
  TRACK 14 AUDIO
    TITLE "Unfulfilled Desire"
    PERFORMER "Vangelis"
    REM COMPOSER ""
    INDEX 01 00:00:00
FILE "15 - Lonesome.wav" WAVE
  TRACK 15 AUDIO
    TITLE "Lonesome"
    PERFORMER "Vangelis"
    REM COMPOSER ""
    INDEX 01 00:00:00
FILE "16 - 1492 Conquest Of Paradise.wav" WAVE
  TRACK 16 AUDIO
    TITLE "1492 Conquest Of Paradise"
    PERFORMER "Vangelis"
    REM COMPOSER ""
    INDEX 01 00:00:00
FILE "17 - Pour Melia.wav" WAVE
  TRACK 17 AUDIO
    TITLE "Pour Melia"
    PERFORMER "Vangelis"
    REM COMPOSER ""
    INDEX 01 00:00:00
Лог проверки качества
foobar2000 1.2.2 / Dynamic Range Meter 1.1.1
log date: 2019-01-30 21:34:22

--------------------------------------------------------------------------------
Analyzed: Vangelis / Nocturne (The Piano Album)
--------------------------------------------------------------------------------

DR         Peak         RMS     Duration Track
--------------------------------------------------------------------------------
DR12      -0.04 dB   -17.28 dB      5:51 01-Nocturnal Promenade
DR12      -0.04 dB   -16.97 dB      5:15 02-To The Unknown Man
DR9       -0.04 dB   -12.64 dB      3:49 03-Movement 9, Mythodea
DR14      -0.05 dB   -18.91 dB      3:11 04-Moonlight Reflections
DR11      -0.03 dB   -14.97 dB      5:13 05-Through The Night Mist
DR10      -0.04 dB   -15.38 dB      3:33 06-Early Years
DR13      -0.38 dB   -18.01 dB      6:05 07-Love Theme, Blade Runner
DR12      -0.04 dB   -16.11 dB      3:39 08-Sweet Nostalgia
DR12      -0.10 dB   -16.90 dB      3:46 09-Intermezzo
DR12      -2.02 dB   -18.05 dB      5:23 10-To A Friend
DR12      -0.04 dB   -16.22 dB      4:45 11-La Petite Fille De La Mer
DR11      -0.75 dB   -15.94 dB      3:45 12-Longing
DR10      -0.04 dB   -13.79 dB      5:27 13-Chariots Of Fire
DR12      -0.05 dB   -18.16 dB      4:24 14-Unfulfilled Desire
DR11      -0.04 dB   -15.64 dB      5:51 15-Lonesome
DR12      -0.04 dB   -15.71 dB      4:52 16-1492 Conquest Of Paradise
DR11      -6.54 dB   -21.14 dB      1:12 17-Pour Melia
--------------------------------------------------------------------------------

Number of tracks:  17
Official DR value: DR11

Samplerate:        44100 Hz
Channels:          2
Bits per sample:   16
Bitrate:           743 kbps
Codec:             FLAC
================================================================================
Скриншот спектра частот
2019 Vangelis - Nocturne - The Piano Album {Decca 7702214} [CD] 02019 Vangelis - Nocturne - The Piano Album {Decca 7702214} [CD] 1
Приватный:
Нет (DHT включён)
Размер:
361.60 Мб (379,159,877 байт) » файлов: 31
Участники:
6 раздают, 0 качают (6 участников всего)
Внешние участники:
34 раздают, 11 качают (45 участников всего) [ Обновить ]
Никого нет на раздаче - пишите личное сообщение M0p94ok
No seeders - write personal message to M0p94ok
19:59
45
Нет комментариев. Ваш будет первым!