Поиск

2013 Mike McGinnis + 9 - Road Trip {RKM 014} [CD]

2013 Mike McGinnis + 9 - Road Trip {RKM 014} [CD]
Стили:
Страна-производитель диска (релиза):
USA
Дата записи диска:
28 февраля 2012
Место записи:
WNYC Studios, New York, NY
Дата издания диска:
8 октября 2013
Номер по каталогу:
RKM 014
Носитель:
CD
Аудиокодек:
FLAC (*.flac)
Тип рипа:
tracks+.cue
Битрейт аудио:
lossless
Время звучания:
00:44:43
Наличие сканов:
web
Треклист:

Concerto for Clarinet and Combo by Bill Smith
1. 1st Movement (5:28)
2. 2nd Movement (9:06)
3. 3rd Movement (6:42)

Road*Trip for Clarinet & 9 Players by Mike McGinnis
4. I. The Rising (8:39)
5. II. Settle (7:53)
6. III. Up & Out (6:54)

Доп. инфо:
"Road*Trip is a 10-piece ensemble featuring the compositions and arrangements of Mike McGinnis. From Bill Smith's 1956 Concerto for Clarinet to McGinnis' wide-ranging and adventurous originals, there's never a boring moment."

More information: http://www.mikemcginnis.com/roadtrip.html
Лог создания рипа
X Lossless Decoder version 20181019 (151.1)

XLD extraction logfile from 2019-02-04 14:36:53 -0700

Mike McGinnis + 9 / Road Trip

Used drive : MATSHITA DVD-R   UJ-8A8 (revision HA13)
Media type : Pressed CD

Ripper mode             : XLD Secure Ripper
Disable audio cache     : OK for the drive with a cache less than 1375KiB
Make use of C2 pointers : NO
Read offset correction  : 102
Max retry count         : 100
Gap status              : Analyzed, Appended (except HTOA)

TOC of the extracted CD
     Track |   Start  |  Length  | Start sector | End sector 
    ---------------------------------------------------------
        1  | 00:00:00 | 05:31:03 |         0    |    24827   
        2  | 05:31:03 | 09:07:64 |     24828    |    65916   
        3  | 14:38:67 | 06:48:72 |     65917    |    96588   
        4  | 21:27:64 | 08:40:07 |     96589    |   135595   
        5  | 30:07:71 | 07:56:44 |    135596    |   171339   
        6  | 38:04:40 | 06:53:57 |    171340    |   202371   

AccurateRip Summary
    Disc not found in AccurateRip DB.

All Tracks
    Album gain               : -4.95 dB
    Peak                     : 0.891418
    Statistics
        Read error                           : 0
        Jitter error (maybe fixed)           : 0
        Retry sector count                   : 0
        Damaged sector count                 : 0

Track 01
    Filename : /Users/Shared/XLD RIPS/Mike McGinnis + 9 - Road Trip (2012) [FLAC]/01 - Concerto for Clarinet and Combo 1st Movement.flac
    Pre-gap length : 00:02:00

    Track gain               : -4.47 dB
    Peak                     : 0.891418
    CRC32 hash (test run)    : 232C0B09
    CRC32 hash               : 232C0B09
    CRC32 hash (skip zero)   : 3D96C25D
    AccurateRip v1 signature : 5B8AEADD
    AccurateRip v2 signature : E12EED93
        ->Track not present in AccurateRip database.
    Statistics
        Read error                           : 0
        Jitter error (maybe fixed)           : 0
        Retry sector count                   : 0
        Damaged sector count                 : 0

Track 02
    Filename : /Users/Shared/XLD RIPS/Mike McGinnis + 9 - Road Trip (2012) [FLAC]/02 - Concerto for Clarinet and Combo 2nd Movement.flac
    Pre-gap length : 00:02:50

    Track gain               : -2.58 dB
    Peak                     : 0.891418
    CRC32 hash (test run)    : A7CD680F
    CRC32 hash               : A7CD680F
    CRC32 hash (skip zero)   : 8935F6B9
    AccurateRip v1 signature : 75929C57
    AccurateRip v2 signature : 3D8483BE
        ->Track not present in AccurateRip database.
    Statistics
        Read error                           : 0
        Jitter error (maybe fixed)           : 0
        Retry sector count                   : 0
        Damaged sector count                 : 0

Track 03
    Filename : /Users/Shared/XLD RIPS/Mike McGinnis + 9 - Road Trip (2012) [FLAC]/03 - Concerto for Clarinet and Combo 3rd Movement.flac
    Pre-gap length : 00:01:07

    Track gain               : -5.78 dB
    Peak                     : 0.891418
    CRC32 hash (test run)    : 811F552B
    CRC32 hash               : 811F552B
    CRC32 hash (skip zero)   : 6ADE1DEC
    AccurateRip v1 signature : 499FC3F6
    AccurateRip v2 signature : 83DBCC75
        ->Track not present in AccurateRip database.
    Statistics
        Read error                           : 0
        Jitter error (maybe fixed)           : 0
        Retry sector count                   : 0
        Damaged sector count                 : 0

Track 04
    Filename : /Users/Shared/XLD RIPS/Mike McGinnis + 9 - Road Trip (2012) [FLAC]/04 - Road Trip for Clarinet & 9 Players  I. The Rising.flac
    Pre-gap length : 00:05:74

    Track gain               : -5.37 dB
    Peak                     : 0.891418
    CRC32 hash (test run)    : 36B3850F
    CRC32 hash               : 36B3850F
    CRC32 hash (skip zero)   : E01B434C
    AccurateRip v1 signature : D973B20A
    AccurateRip v2 signature : 5B6C7BBA
        ->Track not present in AccurateRip database.
    Statistics
        Read error                           : 0
        Jitter error (maybe fixed)           : 0
        Retry sector count                   : 0
        Damaged sector count                 : 0

Track 05
    Filename : /Users/Shared/XLD RIPS/Mike McGinnis + 9 - Road Trip (2012) [FLAC]/05 - Road Trip for Clarinet & 9 Players  II. Settle.flac

    Track gain               : -4.28 dB
    Peak                     : 0.891418
    CRC32 hash (test run)    : A89771AE
    CRC32 hash               : A89771AE
    CRC32 hash (skip zero)   : A0BAE631
    AccurateRip v1 signature : E4421C85
    AccurateRip v2 signature : 1707C6F9
        ->Track not present in AccurateRip database.
    Statistics
        Read error                           : 0
        Jitter error (maybe fixed)           : 0
        Retry sector count                   : 0
        Damaged sector count                 : 0

Track 06
    Filename : /Users/Shared/XLD RIPS/Mike McGinnis + 9 - Road Trip (2012) [FLAC]/06 - Road Trip for Clarinet & 9 Players  III. Up & Out.flac
    Pre-gap length : 00:02:00

    Track gain               : -6.44 dB
    Peak                     : 0.891418
    CRC32 hash (test run)    : BE52FDAA
    CRC32 hash               : BE52FDAA
    CRC32 hash (skip zero)   : 3B5FCA30
    AccurateRip v1 signature : 82EBE597
    AccurateRip v2 signature : 5075D1F7
        ->Track not present in AccurateRip database.
    Statistics
        Read error                           : 0
        Jitter error (maybe fixed)           : 0
        Retry sector count                   : 0
        Damaged sector count                 : 0

No errors occurred

End of status report

-----BEGIN XLD SIGNATURE-----
i57boiPzlNs0jX7thTtvDA44txjKIqw48rnovIJFI4WJ4q0_FDrxpnQEQnRUS4nDME6NPDFQGtSfb0R.MHB55Ms6dbQ0TpLbipMQXYi
-----END XLD SIGNATURE-----
Содержание индексной карты (.CUE)
TITLE "Road Trip"
PERFORMER "Mike McGinnis + 9"
REM DATE "2012"
REM DISCID 530A8A06
REM REPLAYGAIN_ALBUM_GAIN -4.95 dB
REM REPLAYGAIN_ALBUM_PEAK 0.891418
FILE "01 - Concerto for Clarinet and Combo 1st Movement.flac" WAVE
  TRACK 01 AUDIO
    TITLE "Concerto for Clarinet and Combo 1st Movement"
    PERFORMER "Mike McGinnis + 9"
    ISRC QMGTY1300001
    REM REPLAYGAIN_TRACK_GAIN -4.47 dB
    REM REPLAYGAIN_TRACK_PEAK 0.891418
    INDEX 01 00:00:00
  TRACK 02 AUDIO
    TITLE "Concerto for Clarinet and Combo 2nd Movement"
    PERFORMER "Mike McGinnis + 9"
    ISRC QMGTY1300002
    REM REPLAYGAIN_TRACK_GAIN -2.58 dB
    REM REPLAYGAIN_TRACK_PEAK 0.891418
    INDEX 00 05:28:28
FILE "02 - Concerto for Clarinet and Combo 2nd Movement.flac" WAVE
    INDEX 01 00:00:00
  TRACK 03 AUDIO
    TITLE "Concerto for Clarinet and Combo 3rd Movement"
    PERFORMER "Mike McGinnis + 9"
    ISRC QMGTY1300003
    REM REPLAYGAIN_TRACK_GAIN -5.78 dB
    REM REPLAYGAIN_TRACK_PEAK 0.891418
    INDEX 00 09:06:57
FILE "03 - Concerto for Clarinet and Combo 3rd Movement.flac" WAVE
    INDEX 01 00:00:00
  TRACK 04 AUDIO
    TITLE "Road Trip for Clarinet & 9 Players  I. The Rising"
    PERFORMER "Mike McGinnis + 9"
    ISRC QMGTY1300004
    REM REPLAYGAIN_TRACK_GAIN -5.37 dB
    REM REPLAYGAIN_TRACK_PEAK 0.891418
    INDEX 00 06:42:73
FILE "04 - Road Trip for Clarinet & 9 Players  I. The Rising.flac" WAVE
    INDEX 01 00:00:00
FILE "05 - Road Trip for Clarinet & 9 Players  II. Settle.flac" WAVE
  TRACK 05 AUDIO
    TITLE "Road Trip for Clarinet & 9 Players  II. Settle"
    PERFORMER "Mike McGinnis + 9"
    ISRC QMGTY1300005
    REM REPLAYGAIN_TRACK_GAIN -4.28 dB
    REM REPLAYGAIN_TRACK_PEAK 0.891418
    INDEX 01 00:00:00
  TRACK 06 AUDIO
    TITLE "Road Trip for Clarinet & 9 Players  III. Up & Out"
    PERFORMER "Mike McGinnis + 9"
    ISRC QMGTY1300006
    REM REPLAYGAIN_TRACK_GAIN -6.44 dB
    REM REPLAYGAIN_TRACK_PEAK 0.891418
    INDEX 00 07:54:44
FILE "06 - Road Trip for Clarinet & 9 Players  III. Up & Out.flac" WAVE
    INDEX 01 00:00:00
Скачивание доступно после регистрации!!
Приватный:
Нет (DHT включён)
Размер:
262.56 Мб (275,314,121 байт) » файлов: 11
Участники:
5 раздают, 0 качают (5 участников всего)
Внешние участники:
--- [ Обновить ]
12:21
6
Нет комментариев. Ваш будет первым!