Поиск

2019 The Kites - Sunset Vibes {Audioban} [24-48]

2019 The Kites - Sunset Vibes {Audioban} [24-48]
Дата издания диска:
8 февраля 2019
Носитель:
WEB
Контейнер:
FLAC (*.flac)
Тип рипа:
tracks
Разрядность/ЧД:
24/48
Формат:
PCM
Количество каналов:
2.0
Битрейт аудио:
lossless
Время звучания:
31:16
Наличие сканов:
нет
Наличие водяных знаков:
нет
Релизёр (источник):
celtic777
Треклист:

1. Latino Vibes (04:41)
2. Watchu Chasin' (04:34)
3. Supreme Menace (06:22)
4. Friendly Fire (05:39)
5. Count to Seven (03:20)
6. Tequila Sunset (06:40)

More information: itunes.apple.com

Лог проверки качества
foobar2000 1.4.2 / Dynamic Range Meter 1.1.1
log date: 2019-02-09 22:49:47

--------------------------------------------------------------------------------
Analyzed: The Kites / Sunset Vibes
--------------------------------------------------------------------------------

DR         Peak         RMS     Duration Track
--------------------------------------------------------------------------------
DR11      -6.00 dB   -18.84 dB      4:42 01-Latino Vibes
DR12      -6.00 dB   -20.44 dB      4:34 02-Watchu Chasin'
DR10      -6.00 dB   -18.09 dB      6:23 03-Supreme Menace
DR12      -6.00 dB   -20.11 dB      5:39 04-Friendly Fire
DR12      -6.00 dB   -19.87 dB      3:20 05-Count to Seven
DR9       -6.00 dB   -17.99 dB      6:40 06-Tequila Sunset
--------------------------------------------------------------------------------

Number of tracks:  6
Official DR value: DR11

Samplerate:        48000 Hz
Channels:          2
Bits per sample:   24
Bitrate:           1600 kbps
Codec:             FLAC
================================================================================
Скачивание доступно после регистрации!!
Приватный:
Нет (DHT включён)
Размер:
345.32 Мб (362,096,571 байт) » файлов: 8
Участники:
2 раздают, 0 качают (2 участников всего)
Внешние участники:
--- [ Обновить ]
23:57
9
Нет комментариев. Ваш будет первым!