Поиск

2019 Jeremy Pelt - Jeremy Pelt The Artist {HighNote HCD 7325} [24-48]

2019 Jeremy Pelt - Jeremy Pelt The Artist {HighNote HCD 7325} [24-48]
Формат записи/Источник записи:
[TR24][OF]
Дата издания диска:
8 февраля 2019
Издатель (лейбл):
Номер по каталогу:
HCD 7325
Носитель:
WEB
Контейнер:
FLAC (*.flac)
Тип рипа:
tracks
Разрядность/ЧД:
24/48
Формат:
PCM
Количество каналов:
2.0
Время звучания:
00:45:34
Наличие сканов:
буклет pdf
Наличие водяных знаков:
нет
Релизёр (источник):
Stephenten
Треклист:

01. The Rodin Suite, Pt. 1: L'Appel aux armes [00:06:53)
02. The Rodin Suite, Pt. 2: Dignity and Despair (Burghers of Calais) (01:59)
03. The Rodin Suite, Pt. 3: I sol tace (Gates of Hell) (05:59)
04. The Rodin Suite, Pt. 4: Camille Claudel (L'Éternel printemps) (02:33)
05. The Rodin Suite, Pt. 5: Epilogue (04:46)
06. Ceramic (03:41)
07. Feito (06:53)
08. Watercolors (05:57)
09. As of Now (06:53)

Доп. инфо: qobuz.com

Лог проверки качества
foobar2000 1.4 / Dynamic Range Meter 1.1.1
log date: 2019-04-14 00:11:20

--------------------------------------------------------------------------------
Analyzed: Jeremy Pelt / Jeremy Pelt The Artist
--------------------------------------------------------------------------------

DR         Peak         RMS     Duration Track
--------------------------------------------------------------------------------
DR13      -0.25 dB   -15.88 dB      6:54 01-The Rodin Suite, Pt. 1: L'Appel aux armes
DR10      -0.28 dB   -13.99 dB      1:59 02-The Rodin Suite, Pt. 2: Dignity and Despair (Burghers of Calais)
DR13      -0.31 dB   -16.07 dB      5:59 03-The Rodin Suite, Pt. 3: I sol tace (Gates of Hell)
DR11      -0.25 dB   -14.55 dB      2:33 04-The Rodin Suite, Pt. 4: Camille Claudel (L'Éternel printemps)
DR12      -0.27 dB   -15.65 dB      4:47 05-The Rodin Suite, Pt. 5: Epilogue
DR12      -0.34 dB   -15.33 dB      3:41 06-Ceramic
DR12      -0.26 dB   -13.53 dB      6:54 07-Feito
DR13      -0.29 dB   -16.20 dB      5:58 08-Watercolors
DR13      -0.26 dB   -14.62 dB      6:54 09-As of Now
--------------------------------------------------------------------------------

Number of tracks:  9
Official DR value: DR12
Samplerate:        48000 Hz
Channels:          2
Bits per sample:   24
Bitrate:           1486 kbps
Codec:             FLAC
================================================================================
Приватный:
Нет (DHT включён)
Размер:
505.08 Мб (529,616,547 байт) » файлов: 12
Участники:
4 раздают, 0 качают (4 участников всего)
Внешние участники:
8 раздают, 2 качают (10 участников всего) [ Обновить ]
Никого нет на раздаче - пишите личное сообщение M0p94ok
No seeders - write personal message to M0p94ok
17:12
102
Комментарий удален
11:54
С просьбой стать на раздачу лучше писать личное сообщение.
23:55
тема обновилась, просьба перекачать торрент